Правила форума

  • В этом разделе создание новых тем Запрещено.
  • Для создания новых тем пользуйтесь Корневым разделом DVD и HD фильмы.
Начать новую темуОтветить на тему  [ Сообщений: 6 ] 
Торрент файл
Размер: 6.81 GB • Зарегистрирован: 3 года 1 месяц • Статус: Проверено
Скачан: 99 раз • Желающих скачать: 0 • Поблагодарили: 69 раз
 Раздают: 1  |  0 KB/s  ]   Качают: 0  |  0 KB/s  ] 
Сообщения
 Добавлено: 2013-10-17 08:30
DVD Release Group
Аватара пользователя
Стаж: 7 лет 1 месяц
Сообщений: 3544
Спасибок: 246885
Лайков: 1018
Призрачный патруль

R.I.P.D.

«Они защищают наш мир от гостей с того света»


Изображение


Год выпуска: 2013
Страна: США
Жанр: Фантастика, боевик, комедия
Продолжительность: 01:35:55
Перевод: Профессиональный (полное дублирование)
Режиссер: Роберт Швентке
В ролях: Джефф Бриджес, Райан Рейнольдс, Кевин Бейкон, Мэри-Луиз Паркер, Стефани Зостак, Джеймс Хонг, Мариса Миллер, Роберт Неппер, Майк О’Мэлли, Девин Рэтрей
Описание: Детективы из загробного департамента расследуют преступления по ту сторону могилы и гоняются за не в меру ретивой нечистью. Молодой коп, после гибели от руки неизвестного злоумышленника угодивший в мир иной, в обмен на помощь при расследовании собственного убийства обязуется следующие сто лет посвятить службе в R.I.P.D. и, получив в напарники брутального стрелка эпохи вестернов, выходит на борьбу с неупокоившимся злом.
Изображение
Дополнительно: Сохранены чаптеры как на Blu-Ray
Sample:
http://multi-up.com/913949
Качество: BDRip 1080p
Формат: MKV
Видео кодек: H.264
Аудио кодек: AC3, DTS
Видео: 1920x816 23.98fps 8274kbps
Аудио:
Аудио Rus: AC3 48kHz 6ch 384kbps
Аудио Eng: DTS 48kHz 6ch 1510kbps
"MediaInfo"
Формат : Matroska
Версия формата : Version 2
Размер файла : 6,81 Гбайт
Продолжительность : 1 ч. 35 м.
Общий поток : 10,2 Мбит/сек
Дата кодирования : UTC 2013-10-17 00:39:03
Программа кодирования : mkvmerge v5.8.0 ('No Sleep / Pillow') built on Sep 2 2012 15:37:04
Библиотека кодирования : libebml v1.2.3 + libmatroska v1.3.0

Видео
Идентификатор : 1
Формат : AVC
Формат/Информация : Advanced Video Codec
Профиль формата : High@L4.1
Параметр CABAC формата : Да
Параметр ReFrames формата : 5 кадров
Идентификатор кодека : V_MPEG4/ISO/AVC
Продолжительность : 1 ч. 35 м.
Битрейт : 8274 Кбит/сек
Ширина : 1920 пикселей
Высота : 816 пикселей
Соотношение сторон : 2,35:1
Частота кадров : 23,976 кадра/сек
Цветовое пространство : YUV
Субдискретизация насыщенности : 4:2:0
Битовая глубина : 8 бит
Тип развёртки : Прогрессивная
Бит/(Пиксели*Кадры) : 0.220
Размер потока : 5,41 Гбайт (79%)
Заголовок : X264
Библиотека кодирования : x264 core 133 r2334 a3ac64b
Настройки программы : cabac=1 / ref=5 / deblock=1:0:0 / analyse=0x3:0x133 / me=umh / subme=7 / psy=1 / psy_rd=1.00:0.00 / mixed_ref=1 / me_range=16 / chroma_me=1 / trellis=1 / 8x8dct=1 / cqm=0 / deadzone=21,11 / fast_pskip=0 / chroma_qp_offset=-2 / threads=36 / lookahead_threads=6 / sliced_threads=0 / nr=0 / decimate=1 / interlaced=0 / bluray_compat=0 / constrained_intra=0 / bframes=3 / b_pyramid=2 / b_adapt=1 / b_bias=0 / direct=1 / weightb=1 / open_gop=0 / weightp=2 / keyint=250 / keyint_min=23 / scenecut=40 / intra_refresh=0 / rc_lookahead=40 / rc=2pass / mbtree=1 / bitrate=8274 / ratetol=1.0 / qcomp=0.60 / qpmin=0 / qpmax=69 / qpstep=4 / cplxblur=20.0 / qblur=0.5 / ip_ratio=1.40 / aq=1:1.00
Язык : English
Default : Да
Forced : Нет

Аудио #1
Идентификатор : 2
Формат : AC-3
Формат/Информация : Audio Coding 3
Расширение режима : CM (complete main)
Идентификатор кодека : A_AC3
Продолжительность : 1 ч. 35 м.
Вид битрейта : Постоянный
Битрейт : 384 Кбит/сек
Каналы : 6 каналов
Расположение каналов : Front: L C R, Side: L R, LFE
Частота : 48,0 КГц
Битовая глубина : 16 бит
Метод сжатия : С потерями
Размер потока : 263 Мбайт (4%)
Язык : Russian
Default : Да
Forced : Нет

Аудио #2
Идентификатор : 3
Формат : DTS
Формат/Информация : Digital Theater Systems
Идентификатор кодека : A_DTS
Продолжительность : 1 ч. 35 м.
Вид битрейта : Постоянный
Битрейт : 1510 Кбит/сек
Каналы : 6 каналов
Расположение каналов : Front: L C R, Side: L R, LFE
Частота : 48,0 КГц
Битовая глубина : 24 бит
Метод сжатия : С потерями
Размер потока : 1,01 Гбайт (15%)
Заголовок : DTS
Язык : English
Default : Нет
Forced : Нет

Меню
00:00:00.000 : en:00:00:00.000
00:03:57.112 : en:00:03:57.112
00:09:13.136 : en:00:09:13.136
00:14:30.578 : en:00:14:30.578
00:17:58.411 : en:00:17:58.411
00:22:30.599 : en:00:22:30.599
00:27:09.503 : en:00:27:09.503
00:33:33.511 : en:00:33:33.511
00:38:46.157 : en:00:38:46.157
00:43:27.647 : en:00:43:27.647
00:46:31.747 : en:00:46:31.747
00:52:04.038 : en:00:52:04.038
00:55:52.099 : en:00:55:52.099
01:02:15.982 : en:01:02:15.982
01:07:01.100 : en:01:07:01.100
01:10:35.690 : en:01:10:35.690
01:13:16.309 : en:01:13:16.309
01:17:52.126 : en:01:17:52.126
01:23:00.934 : en:01:23:00.934
01:27:27.909 : en:01:27:27.909
Свернуть

"Скриншоты"
Изображение
Изображение
Изображение
Свернуть

Раздача группы:
Изображение
Не в сети
Профиль  
 Добавлено: 2013-10-20 09:26 (спустя 3 дня)
Аватара пользователя
Стаж: 7 лет 8 месяцев
Сообщений: 136
Лайков: 1
А лицензия когда будет? подскажите пожалуйста :ne_znayu:
Не в сети
Профиль  
 Добавлено: 2013-10-20 18:39 (спустя 9 часов)
Стаж: 3 года 11 месяцев
Сообщений: 27
А это что? :du_ma_et:

Добавлено спустя 1 минута:
Фильм на самом деле классный,я его по большому экрану смотрел.... :co_ol:

Добавлено спустя 3 минуты:
Посмотрю-ка я его еще разок.... :a_g_a:
Не в сети
Профиль  
 Добавлено: 2013-10-20 19:49 (спустя 1 час 9 минут)
Стаж: 9 лет
Сообщений: 312
Спасибок: 347
Лайков: 9

BOMBA777:

А лицензия когда будет? подскажите пожалуйста :ne_znayu:


релиз на Blu-Ray 14 ноября 2013

По этому лицензия ближе к этому числу будет
Не в сети
Профиль  
 Добавлено: 2013-10-20 21:24 (спустя 1 час 35 минут)
Аватара пользователя
Стаж: 7 лет 8 месяцев
Сообщений: 136
Лайков: 1

Blaster:

BOMBA777:

А лицензия когда будет? подскажите пожалуйста :ne_znayu:


релиз на Blu-Ray 14 ноября 2013

По этому лицензия ближе к этому числу будет

Спасибо!
Не в сети
Профиль  
 Добавлено: 2013-10-20 21:33 (спустя 9 минут)
Стаж: 3 года 11 месяцев
Сообщений: 27
Клёвый фильм,местами даже смешно на самом деле....... :ya_hoo_oo:
Не в сети
Профиль  
Начать новую темуОтветить на тему  [ Сообщений: 6 ] 
Вы не можете начинать темы
Вы не можете отвечать на сообщения
Вы не можете редактировать свои сообщения
Вы не можете удалять свои сообщения