Правила форума

  • В этом разделе создание новых тем Запрещено.
  • Для создания новых тем пользуйтесь Корневым разделом DVD и HD фильмы.
Начать новую темуОтветить на тему  [ Сообщений: 3 ] 
Торрент файл
Размер: 8.18 GB • Зарегистрирован: 3 года 1 месяц • Статус: Проверено
Скачан: 129 раз • Желающих скачать: 0 • Поблагодарили: 59 раз
 Раздают: 0  |  0 KB/s  ]   Качают: 1  |  0 KB/s  ] 
 Полного источника не было 16 часов 
Сообщения
 Добавлено: 2013-10-19 18:55
Аватара пользователя
Стаж: 9 лет 1 месяц
Сообщений: 7969
Спасибок: 122176
Лайков: 1191
Призрачный патруль / R.I.P.D.

«Они защищают наш мир от гостей с того света»

Изображение


Год выпуска: 2013
Страна: Изображение США
Жанр: фэнтези, боевик, комедия, криминал
Продолжительность: 01:35:53
Субтитры: Русские, английские
Перевод: Профессиональный (полное дублирование) [Лицензия]


Режиссёр: Роберт Швентке
Сценарист: Фил Хэй, Мэтт Манфреди, Питер М. Ленков
Продюсер: Майкл Фоттрел, Нил Х. Мориц, Майк Ричардсон
Оператор: Альвин Х. Кюхлер
Композитор: Кристоф Бек

В ролях: Райан Рейнольдс, Джефф Бриджес, Кевин Бэйкон, Мэри-Луиз Паркер, Стефани Зостак, Роберт Неппер, Мариса Миллер, Джеймс Хонг, Майк О’Мэлли, Девин Рэтрей

Описание: Детективы из загробного департамента расследуют преступления по ту сторону могилы и гоняются за не в меру ретивой нечистью. Молодой коп, после гибели от руки неизвестного злоумышленника угодивший в мир иной, в обмен на помощь при расследовании собственного убийства обязуется следующие сто лет посвятить службе в R.I.P.D. и, получив в напарники брутального стрелка эпохи вестернов, выходит на борьбу с неупокоившимся злом.

Изображение Изображение

Раздача группы: Изображение

Качество: BDRip (1080p)
Формат: Matroska
Видео: MPEG-4 AVC, 10.3 Мбит/с, 1920x816, 23.976 кадр/с
Аудио №1: Русский (AC3, 48,0 КГц, 6 ch, 384 Кбит/c)
Аудио №2: Английский (DTS, 48,0 КГц, 6 ch, 1510 Кбит/c)

MediaInfo
Общее
Уникальный идентификатор : 173973101330721012003001065187659399955 (0x82E20023329FC2C5B071EA2C7ABAC313)
Полное имя : C:\Фильмы\R.I.P.D.2013.D.BDRip.1080p.R.G.Daredevil.mkv
Формат : Matroska
Версия формата : Version 2
Размер файла : 8,18 Гбайт
Продолжительность : 1 ч. 35 м.
Общий поток : 12,2 Мбит/сек
Название фильма : Respector
Дата кодирования : UTC 2013-10-16 18:11:59
Программа кодирования : mkvmerge v5.5.0 ('Healer') built on Apr 24 2012 23:47:03
Библиотека кодирования : libebml v1.2.3 + libmatroska v1.3.0

Видео
Идентификатор : 1
Формат : AVC
Формат/Информация : Advanced Video Codec
Профиль формата : High@L4.1
Параметр CABAC формата : Да
Параметр ReFrames формата : 5 кадров
Идентификатор кодека : V_MPEG4/ISO/AVC
Продолжительность : 1 ч. 35 м.
Битрейт : 10,3 Мбит/сек
Ширина : 1920 пикселей
Высота : 816 пикселей
Соотношение сторон : 2,35:1
Режим частоты кадров : Постоянный
Частота кадров : 23,976 кадра/сек
Цветовое пространство : YUV
Субдискретизация насыщенности : 4:2:0
Битовая глубина : 8 бит
Тип развёртки : Прогрессивная
Бит/(Пиксели*Кадры) : 0.274
Размер потока : 6,75 Гбайт (83%)
Библиотека кодирования : x264 core 138 r2356 a1d3d17
Настройки программы : cabac=1 / ref=5 / deblock=1:-3:-3 / analyse=0x3:0x113 / me=umh / subme=10 / psy=1 / psy_rd=1.00:0.05 / mixed_ref=1 / me_range=32 / chroma_me=1 / trellis=2 / 8x8dct=1 / cqm=0 / deadzone=21,11 / fast_pskip=0 / chroma_qp_offset=-2 / threads=18 / lookahead_threads=1 / sliced_threads=0 / nr=0 / decimate=1 / interlaced=0 / bluray_compat=0 / constrained_intra=0 / bframes=5 / b_pyramid=2 / b_adapt=2 / b_bias=0 / direct=3 / weightb=1 / open_gop=0 / weightp=2 / keyint=250 / keyint_min=23 / scenecut=40 / intra_refresh=0 / rc=2pass / mbtree=0 / bitrate=10311 / ratetol=1.0 / qcomp=0.70 / qpmin=0 / qpmax=69 / qpstep=4 / cplxblur=20.0 / qblur=0.5 / ip_ratio=1.40 / pb_ratio=1.30 / aq=2:1.00
Язык : English
Default : Да
Forced : Нет

Аудио #1
Идентификатор : 2
Формат : AC-3
Формат/Информация : Audio Coding 3
Расширение режима : CM (complete main)
Параметр Endianness формата : Big
Идентификатор кодека : A_AC3
Продолжительность : 1 ч. 35 м.
Вид битрейта : Постоянный
Битрейт : 384 Кбит/сек
Каналы : 6 каналов
Расположение каналов : Front: L C R, Side: L R, LFE
Частота : 48,0 КГц
Битовая глубина : 16 бит
Метод сжатия : С потерями
Размер потока : 263 Мбайт (3%)
Язык : Russian
Default : Да
Forced : Да

Аудио #2
Идентификатор : 3
Формат : DTS
Формат/Информация : Digital Theater Systems
Режим : 16
Параметр Endianness формата : Big
Идентификатор кодека : A_DTS
Продолжительность : 1 ч. 35 м.
Вид битрейта : Постоянный
Битрейт : 1509 Кбит/сек
Каналы : 6 каналов
Расположение каналов : Front: L C R, Side: L R, LFE
Частота : 48,0 КГц
Битовая глубина : 24 бит
Метод сжатия : С потерями
Размер потока : 1,01 Гбайт (12%)
Язык : English
Default : Нет
Forced : Нет

Текст #1
Идентификатор : 4
Формат : UTF-8
Идентификатор кодека : S_TEXT/UTF8
Идентификатор кодека/Информация : UTF-8 Plain Text
Язык : Russian
Default : Нет
Forced : Нет

Текст #2
Идентификатор : 5
Формат : UTF-8
Идентификатор кодека : S_TEXT/UTF8
Идентификатор кодека/Информация : UTF-8 Plain Text
Язык : English
Default : Нет
Forced : Нет

Меню
00:00:00.000 : en:00:00:00.000
00:03:57.112 : en:00:03:57.112
00:09:13.136 : en:00:09:13.136
00:14:30.578 : en:00:14:30.578
00:17:58.411 : en:00:17:58.411
00:22:30.599 : en:00:22:30.599
00:27:09.503 : en:00:27:09.503
00:33:33.511 : en:00:33:33.511
00:38:46.157 : en:00:38:46.157
00:43:27.647 : en:00:43:27.647
00:46:31.747 : en:00:46:31.747
00:52:04.038 : en:00:52:04.038
00:55:52.099 : en:00:55:52.099
01:02:15.982 : en:01:02:15.982
01:07:01.100 : en:01:07:01.100
01:10:35.690 : en:01:10:35.690
01:13:16.309 : en:01:13:16.309
01:17:52.126 : en:01:17:52.126
01:23:00.934 : en:01:23:00.934
01:27:27.909 : en:01:27:27.909
Свернуть
Знаете ли вы, что...
Фильм снят по мотивам комикса Питера М. Ленкова «R.I.P.D.» (2001).

У фильма не было предварительного показа для критиков.

Зак Галифианакис рассматривался на роль Роя Пауэлла, но покинул проект из-за несогласованности расписаний съемок.

Джоди Фостер рассматривалась на роль Проктер.

Одна из сцен была снята в здании Hynes Convention Center, который находится на расстоянии полумили от площади Копли, где Джеффа Бриджеса чуть не убили в реальной жизни во время съемок сцены взрыва грузовика с бомбой из фильма «Подрывники» (1994).

Это четвертый раз, когда Райан Рейнольдс играет в фильме, снятом по комиксам. Ранее он играл Ганнибала Кинга в фильме «Блэйд 3: Троица» (2004), Дэдпула в «Люди Икс: Начало. Росомаха» (2009) и Хэла Джордана в фильме «Зеленый Фонарь» (2011).

В США и некоторых других странах этот фильм вышел в один день с фильмом «РЭД 2» (2013), сиквелом фильма режиссера «Призрачного патруля» Роберта Швентке — «РЭД» (2010), в котором так же снималась Мэри-Луиз Паркер. Кроме того, он был выпущен через два дня после анимационного фильма «Турбо» (2013), в котором одного из персонажей озвучивал Райан Рейнольдс.

Номер машины Роя и Ника 314159, что является приближенным значением числа Пи.

Одна из машин бостонской полиции на рейде, где убивают Ника, имеет отметки того же вымышленного района A-8, что и в фильмах «Папа-досвидос» (2012) и «Город воров» (2010).

Свернуть
Скриншоты
Изображение
Изображение
Изображение
Изображение
Свернуть
В сети
Профиль  
 Добавлено: 2013-10-20 19:04 (спустя 1 день)
DVD Release Group
Аватара пользователя
Стаж: 7 лет 1 месяц
Сообщений: 3546
Спасибок: 246983
Лайков: 1018
krazz
nntt/zarubejnoe-kino-hd-video-f1750/prizrachniy-patrul-r-i-p-d-robert-shventke-dub-itunes-russian-t519743.html
Не в сети
Профиль  
 Добавлено: 2013-10-22 23:05 (спустя 2 дня 4 часа)
Аватара пользователя
Стаж: 8 лет 9 месяцев
Сообщений: 1170
Спасибок: 1294
Лайков: 7
треееееш :-D но если не вдумываться в то, что происходит - посмотреть можно)
Не в сети
Профиль  
Начать новую темуОтветить на тему  [ Сообщений: 3 ] 
Вы не можете начинать темы
Вы не можете отвечать на сообщения
Вы не можете редактировать свои сообщения
Вы не можете удалять свои сообщения