Правила форума

  • В этом разделе создание новых тем Запрещено.
  • Для создания новых тем пользуйтесь Корневым разделом DVD и HD фильмы.
Начать новую темуОтветить на тему  [ Сообщений: 2 ] 
Торрент файл
Размер: 18.48 GB • Зарегистрирован: 4 года • Статус: Проверено
Скачан: 7 раз • Желающих скачать: 0 • Поблагодарили: 2 раза
 Раздают: 0  |  0 KB/s  ]   Качают: 0  |  0 KB/s  ] 
 Полного источника не было 2 года 2 месяца 
Сообщения
 Добавлено: 2012-11-26 17:46
Аватара пользователя
Стаж: 7 лет 11 месяцев
Возраст: 23
Сообщений: 184
Спасибок: 236
Лайков: 1
Призрак Красной реки / An American Haunting (2005)


Изображение


Русское название: Призрак Красной реки
Оригинальное название: An American Haunting
Страна: Великобритания, Канада, Румыния, США
Год выпуска: 2005
Жанр: Ужасы, Триллер, Детектив

Описание фильма:
«Призрак Красной Реки» - история, основанная на реальных событиях, происходивших в США (штат Теннеси) в 19 веке. Об истории семьи Беллов, подвергшейся нападениям таинственного духа, написано 35 книг. Все они рассказывают о том, как на добропорядочную и уважаемую семью Беллов обрушилось проклятье. С какого-то момента в их дом стал приходить призрак, который добивался смерти одного из членов семьи.

Режиссер: Кортни Соломон / Courtney Solomon
Актеры: Дональд Сазерленд (John Bell), Сисси Спейсек (Lucy Bell), Джеймс Д`Арси (Richard Powell), Рейчел Херд-Вуд (Betsy Bell / Entity Voice), Мэттью Марш (James Johnston), Том Фелл (John Bell Jr.), Зои Торн (Theny Thorn), Гей Браун (Kathe Batts), Сэм Александр (Joshua Gardner), Микель Браун (Chloe), Вернон Добчефф

Продолжительность: 01:30:15
Перевод: Профессиональный |полное дублирование| + Авторский |одноголосый закадровый| Антон Карповский
Оригинальная аудиодорожка: Английская
Субтитры: Русские

Рейтинг PG-13 - Детям до 13 лет просмотр не желателен

Качество видео: BDRemux
Видео: MPEG-4 AVC/H.264 , 1920x1080p , ~24.9 Мбит/сек
Аудиокодек: AC3+ DTS-HD MA

Аудио 1: Русский / AC3 / 384 Кбит/сек / 5.1 / 48 кГц / 16-бит (Dub)
Аудио 2: Русский / AC3 / 192 Кбит/сек / 2.0 / 48 кГц / 16-бит (AVO Антон Карповский)
Аудио 3: English / DTS-HD Master Audio / 3223 Кбит/сек / 5.1 / 48 кГц / 24-бит (DTS Core: 5.1 / 48 кГц / 1510 Кбит/сек / 24-бит) (Оригинал)

Скриншоты
Изображение
Изображение
Изображение


Свернуть
MediaInfo:
General
Complete name : O:\Призрак Красной реки (An American Haunting).mkv
Format : Matroska
File size : 18.5 GiB
Duration : 1h 30mn
Overall bit rate : 29.3 Mbps
Encoded date : UTC 2012-11-17 11:59:48
Writing application : mkvmerge v5.8.0 ('No Sleep / Pillow') built on Sep 2 2012 15:37:04
Writing library : libebml v1.2.3 + libmatroska v1.3.0

Video
ID : 1
Format : AVC
Format/Info : Advanced Video Codec
Format profile : High@L4.1
Format settings, CABAC : Yes
Format settings, ReFrames : 4 frames
Muxing mode : Container profile=Unknown@4.1
Codec ID : V_MPEG4/ISO/AVC
Duration : 1h 30mn
Width : 1 920 pixels
Height : 1 080 pixels
Display aspect ratio : 16:9
Frame rate : 23.976 fps
Standard : NTSC
Resolution : 8 bits
Colorimetry : 4:2:0
Scan type : Progressive
Color primaries : BT.709-5, BT.1361, IEC 61966-2-4, SMPTE RP177
Transfer characteristics : BT.709-5, BT.1361
Matrix coefficients : BT.709-5, BT.1361, IEC 61966-2-4 709, SMPTE RP177

Audio #1
ID : 2
Format : AC-3
Format/Info : Audio Coding 3
Codec ID : A_AC3
Duration : 1h 30mn
Bit rate mode : Constant
Bit rate : 384 Kbps
Channel(s) : 6 channels
Channel positions : Front: L C R, Surround: L R, LFE
Sampling rate : 48.0 KHz
Stream size : 248 MiB (1%)
Title : Профессиональный (полное дублирование)
Language : Russian

Audio #2
ID : 3
Format : AC-3
Format/Info : Audio Coding 3
Codec ID : A_AC3
Duration : 1h 30mn
Bit rate mode : Constant
Bit rate : 192 Kbps
Channel(s) : 2 channels
Channel positions : L R
Sampling rate : 48.0 KHz
Stream size : 124 MiB (1%)
Title : Авторский (одноголосый закадровый) Антон Карповский
Language : Russian

Audio #3
ID : 4
Format : DTS
Format/Info : Digital Theater Systems
Format profile : MA
Codec ID : A_DTS
Duration : 1h 30mn
Bit rate mode : Variable
Channel(s) : 6 channels
Channel positions : Front: L C R, Surround: L R, LFE
Sampling rate : 48.0 KHz
Resolution : 24 bits
Title : Оригинал

Text
ID : 5
Format : UTF-8
Codec ID : S_TEXT/UTF8
Codec ID/Info : UTF-8 Plain Text
Language : Russian

Свернуть


Последний раз редактировалось OziFaker 2012-11-27 10:03, всего редактировалось 2 раз(а).
Не в сети
Профиль  
 Добавлено: 2012-11-26 19:11 (спустя 1 час 25 минут)
Руководитель релиз-группы
Аватара пользователя
Стаж: 7 лет 5 месяцев
Возраст: 31
Сообщений: 3406
Спасибок: 46729
Лайков: 5
OziFaker
Для HD и HQRip-ов необходимы скриншоты в формате PNG.
Не в сети
Профиль  
Начать новую темуОтветить на тему  [ Сообщений: 2 ] 
Вы не можете начинать темы
Вы не можете отвечать на сообщения
Вы не можете редактировать свои сообщения
Вы не можете удалять свои сообщения