Правила форума

  • В этом разделе создание новых тем Запрещено.
  • Для создания новых тем пользуйтесь Корневым разделом DVD и HD фильмы.
Начать новую темуОтветить на тему  [ Сообщений: 5 ] 
Торрент файл
Размер: 3.05 GB • Зарегистрирован: 3 года 10 месяцев • Статус: T Временный релиз
Скачан: 184 раза • Желающих скачать: 0 • Поблагодарили: 33 раза
 Раздают: 0  |  0 KB/s  ]   Качают: 0  |  0 KB/s  ] 
 Полного источника не было 1 год 4 месяца 
Сообщения
 Добавлено: 2013-02-06 17:25
Книголюб
Аватара пользователя
Стаж: 7 лет 2 месяца
Сообщений: 2823
Спасибок: 48826
Лайков: 73
Призраки в Коннектикуте 2: Тени прошлого
The Haunting in Connecticut 2: Ghosts of Georgia

Изображение


Год выпуска: 2013
Страна: США
Жанр: ужасы, триллер, драма
Продолжительность: 01:40:58
Перевод: Любительский (двухголосый закадровый)[den904, DeadSno]


Режиссёр: Том Элкинс
В ролях: Чад Майкл Мюррэй, Кэти Сакхофф, Эбигейл Спенсер, Сисели Тайсон, Эмили Элин Линд, Андреа Франкл, Лорен Пеннингтон, Брэд Джеймс, Лэнс Э. Николс, Уэйн Пер
Описание: Девочка Хайди недавно переехала в Джорджию вместе со своими родителями. Однако жизнь на новом месте не задалась, так как ее начали терроризировать призраки. Вынужденные поверить в происходящее, родители пытаются выяснить причину паранормальных явлений.
Рейтинг MPAA: Рейтинг R (Подростки до 17 лет допускаются на фильм только в сопровождении одного из родителей)
Мировая премьера: 1 февраля 2013
Изображение

Качество: WEB-DL
Формат: MKV
Видео кодек: H.264
Аудио кодек: AC3
Видео: 280x530 23.976fps 3 467 Kbps
Аудио #1: AC3, 48,0 КHz, 5.1, 384 Kbit/s - Русский
Аудио #2: AC3, 48,0 КHz, 5.1, 384 Kbit/s - Aнглийский
MediaInfo
General
Unique ID : 204391096917166567202164790390983795373 (0x99C44B1BBB27166390ABC01E6444A2AD)
Complete name : K:\Torrent\The.Haunting.in.Connecticut.2.Ghost.of.Georgia..mkv
Format : Matroska
Format version : Version 2
File size : 3.05 GiB
Duration : 1h 40mn
Overall bit rate : 4 321 Kbps
Movie name : Призраки в Коннектикуте 2
Encoded date : UTC 2013-02-06 08:31:04
Writing application : mkvmerge v5.5.0 ('Healer') built on Apr 24 2012 23:47:03
Writing library : libebml v1.2.3 + libmatroska v1.3.0

Video
ID : 1
Format : AVC
Format/Info : Advanced Video Codec
Format profile : Main@L3.1
Format settings, CABAC : No
Format settings, ReFrames : 2 frames
Codec ID : V_MPEG4/ISO/AVC
Duration : 1h 40mn
Bit rate : 3 467 Kbps
Width : 1 280 pixels
Height : 530 pixels
Display aspect ratio : 2.40:1
Frame rate : 23.976 fps
Color space : YUV
Chroma subsampling : 4:2:0
Bit depth : 8 bits
Scan type : Progressive
Bits/(Pixel*Frame) : 0.213
Stream size : 2.45 GiB (80%)
Title : The.Haunting.in.Connecticut.2.Ghost.of.Georgia.2013.720p.WEB-DL
Language : English
Default : Yes
Forced : No
Color primaries : BT.709-5, BT.1361, IEC 61966-2-4, SMPTE RP177
Transfer characteristics : BT.709-5, BT.1361
Matrix coefficients : BT.709-5, BT.1361, IEC 61966-2-4 709, SMPTE RP177

Audio #1
ID : 2
Format : AC-3
Format/Info : Audio Coding 3
Mode extension : CM (complete main)
Codec ID : A_AC3
Duration : 1h 40mn
Bit rate mode : Constant
Bit rate : 384 Kbps
Channel(s) : 6 channels
Channel positions : Front: L C R, Side: L R, LFE
Sampling rate : 48.0 KHz
Bit depth : 16 bits
Compression mode : Lossy
Stream size : 277 MiB (9%)
Title : DVO
Language : Russian
Default : Yes
Forced : No

Audio #2
ID : 3
Format : AC-3
Format/Info : Audio Coding 3
Mode extension : CM (complete main)
Codec ID : A_AC3
Duration : 1h 40mn
Bit rate mode : Constant
Bit rate : 384 Kbps
Channel(s) : 6 channels
Channel positions : Front: L C R, Side: L R, LFE
Sampling rate : 48.0 KHz
Bit depth : 16 bits
Compression mode : Lossy
Stream size : 277 MiB (9%)
Title : Original
Language : English
Default : No
Forced : No

Text
ID : 4
Format : UTF-8
Codec ID : S_TEXT/UTF8
Codec ID/Info : UTF-8 Plain Text
Language : English
Default : No
Forced : No

Menu
00:00:00.000 : en:Chapter 1
00:07:40.000 : en:Chapter 2
00:16:13.000 : en:Chapter 3
00:25:14.000 : en:Chapter 4
00:32:28.000 : en:Chapter 5
00:39:28.000 : en:Chapter 6
00:47:48.000 : en:Chapter 7
00:55:29.000 : en:Chapter 8
01:03:24.000 : en:Chapter 9
01:12:32.000 : en:Chapter 10
01:19:04.000 : en:Chapter 11
01:30:15.000 : en:Chapter 12
01:34:49.000 : en:Chapter 13


Свернуть

Скриншоты
Изображение
Изображение
Изображение
Изображение
Свернуть
Не в сети
Профиль  
 Добавлено: 2013-02-09 21:24 (спустя 3 дня)
Аватара пользователя
Стаж: 5 лет 5 месяцев
Сообщений: 9
Фильм норм качество отменное стоит посмотреть всем только не ночью а ту моменты уже трусы стираю!
_________________
Изображение
Не в сети
Профиль  
 Добавлено: 2013-02-11 23:11 (спустя 2 дня 1 час)
Модератор
Аватара пользователя
Стаж: 5 лет 8 месяцев
Сообщений: 6281
Спасибок: 17335
Лайков: 1633
coldun

coldun:

Видео: 280x530 23.976fps 3 467 Kbps
может видео 1280*530?
_________________
Изображение Изображение Изображение
Не в сети
Профиль  
 Добавлено: 2013-02-28 14:14 (спустя 16 дней)
Аватара пользователя
Стаж: 8 лет 5 месяцев
Сообщений: 30
первая часть четче
Не в сети
Профиль  
 Добавлено: 2013-03-03 18:14 (спустя 3 дня)
Аватара пользователя
Стаж: 9 лет 1 месяц
Сообщений: 44
Спасибок: 535
hhttp://nnportal.org/portal/viewtopic.php?f=17 ... 0&t=498895#http://nnportal.org/portal/viewtopic.php?f=1750&t=498895#
Не в сети
Профиль  
Начать новую темуОтветить на тему  [ Сообщений: 5 ] 
Вы не можете начинать темы
Вы не можете отвечать на сообщения
Вы не можете редактировать свои сообщения
Вы не можете удалять свои сообщения