Правила форума

  • В этом разделе создание новых тем Запрещено.
  • Для создания новых тем пользуйтесь Корневым разделом DVD и HD фильмы.
Начать новую темуОтветить на тему  [ Сообщений: 2 ] 
Торрент файл
Размер: 12.29 GB • Зарегистрирован: 3 года 1 месяц • Статус: Проверено
Скачан: 23 раза • Желающих скачать: 0 • Поблагодарили: 13 раз
 Раздают: 0  |  0 KB/s  ]   Качают: 0  |  0 KB/s  ] 
 Полного источника не было 16 дней 
Сообщения
 Добавлено: 2014-09-20 09:48
Top-releaser
Аватара пользователя
Стаж: 8 лет 7 месяцев
Сообщений: 1286
Спасибок: 3421
Лайков: 7
Изображение
Пробуждение | Awakenings


«Открыв глаза на мир одному человеку... он открыл и свои собственные»


Год выпуска | 1990
Страна | США
Жанр | драма, биография
Продолжительность | 02:00:41
Перевод | Профессиональный (многоголосый, закадровый)
Режиссер | Пенни Маршалл
Сценарий | Стивен Зеллиан, Оливер Сакс
Продюсер | Лоуренс Ласкер, Уолтер Ф. Паркс, Эллиот Эбботт, Эми Лемиш, Пенни Маршалл
Оператор | Мирослав Ондржичек
Композитор | Рэнди Ньюман

В ролях | Роберт Де Ниро, Робин Уильямс, Джон Хёрд, Джули Кавнер, Пенелопа Энн Миллер, Макс фон Сюдов, Брэдли Уитфорд, Петер Стормаре, Рут Нельсон, Элис Драммонд, Джудит Мэлина, Бартон Хейман и др.
Описание | Доктор Малколм Сэйер, застенчивый врач и ученый, использует экспериментальные препараты, чтобы «пробуждать» обездвиженных жертв редкого заболевания. Леонард был первым пациентом, получившим это неопробованное лечение. Его пробуждение, наполненное благоговением, страхом и энтузиазмом, приводят как бы ко второму рождению и самого Сэйера по мере того, как пациент открывает для себя и доктора простые радости жизни. Воодушевленный чудесным выздоровлением Леонарда, Сэйер дает лекарство другим больным.
Раздача | Изображение

kinopoisk.ru | 8.517 (50 148)
Мировая премьера | 12 декабря 1990
Знаете ли Вы, что...
  • Фильм основан на книге мемуаров Оливера Сакса «Пробуждение» (Awakenings, 1973).
  • Существует известный одноимённый документальный фильм (1973), и в нём показаны настоящие больные летаргическим энцефалитом.
  • Оливер Сакс выступил консультантом при создании фильма.
  • Фильм основан на реальных событиях, произошедших в 1969-1970 годах с невропатологом Оливером Саксом, написавшим позднее мемуары об этом. По этой книге Гарольдом Пинтером также была написана пьеса «A Kind of Alaska». Эпидемия летаргического энцефалита Экономо, вызывающего кататонию, действительно имела место в 1917-1928 годах; препарат «L-Dopa» также реален.
  • Де Ниро и Уильямс долгое время наблюдали за доктором Саксом и реальными больными в больнице, прежде чем приступить к созданию образов.
  • На съёмках сцены, в которой охранники пытаются помешать герою Де Ниро выйти за пределы больницы, Робин Уильямс, неловко размахнувшись локтем, сломал нос Роберту Де Ниро. По словам Де Ниро, его нос уже был сломан, и удар, как ни странно, выпрямил его.
  • В одной из сцен фильма появляется действительно больная летаргическим энцефалитом Лилиан Т., единственная дожившая до того времени из пациентов доктора Сакса.
  • Среди обслуживающего персонала больницы можно увидеть дебютанта и ныне известного героя боевиков - Вина Дизеля, для которого лента «Пробуждение» стала первым официальным появлением на широком экране.
  • еще 5 фактов
Свернуть

Качество | BDRip 1080p
Контейнер | MKV
Видео | AVC, 1920x1040 (16:9), 12500 kbps, 23,976 fps, 0,261 bit/pixel
Аудио №1 | русский, AC3, 192 kbps, CBR, 2 channels, 16 bit
Аудио №2 | русский, AC3, 192 kbps, CBR, 2 channels, 16 bit
Аудио №3 | русский, AC3, 192 kbps, CBR, 2 channels, 16 bit
Аудио №4 | английский, DTS, 1510 kbps, CBR, 6 channels, 24 bit

MediaInfo
General
Unique ID : 241606045573677852460421810813914177082 (0xB5C3A1BD17059113BEE03EB44EF5DE3A)
Complete name : D:\Видео\Awakenings.1990.BDRip.1080p[R.G.KiNOvNiNO].mkv
Format : Matroska
Format version : Version 2
File size : 12.3 GiB
Duration : 2h 0mn
Overall bit rate : 14.6 Mbps
Encoded date : UTC 2011-04-26 14:31:12
Writing application : mkvmerge v4.4.0 ('Die Wiederkehr') сборка от Oct 31 2010 21:52:48
Writing library : libebml v1.0.0 + libmatroska v1.0.0

Video
ID : 1
Format : AVC
Format/Info : Advanced Video Codec
Format profile : High@L4.1
Format settings, CABAC : Yes
Format settings, ReFrames : 4 frames
Codec ID : V_MPEG4/ISO/AVC
Duration : 2h 0mn
Bit rate : 12.5 Mbps
Width : 1 920 pixels
Height : 1 040 pixels
Display aspect ratio : 16:9
Frame rate : 23.976 fps
Color space : YUV
Chroma subsampling : 4:2:0
Bit depth : 8 bits
Scan type : Progressive
Bits/(Pixel*Frame) : 0.261
Stream size : 10.3 GiB (84%)
Writing library : x264 core 114 r1900 60ef1f8
Encoding settings : cabac=1 / ref=4 / deblock=1:-3:-3 / analyse=0x3:0x113 / me=umh / subme=9 / psy=1 / psy_rd=1.00:0.00 / mixed_ref=1 / me_range=32 / chroma_me=1 / trellis=1 / 8x8dct=1 / cqm=0 / deadzone=21,11 / fast_pskip=0 / chroma_qp_offset=-2 / threads=7 / sliced_threads=0 / nr=0 / decimate=0 / interlaced=0 / constrained_intra=0 / bframes=6 / b_pyramid=2 / b_adapt=2 / b_bias=0 / direct=1 / weightb=1 / open_gop=0 / weightp=2 / keyint=250 / keyint_min=23 / scenecut=40 / intra_refresh=0 / rc_lookahead=40 / rc=2pass / mbtree=1 / bitrate=12500 / ratetol=1.0 / qcomp=0.60 / qpmin=0 / qpmax=69 / qpstep=4 / cplxblur=20.0 / qblur=0.5 / ip_ratio=1.40 / aq=1:0.80
Language : English
Default : Yes
Forced : No

Audio #1
ID : 2
Format : AC-3
Format/Info : Audio Coding 3
Mode extension : CM (complete main)
Codec ID : A_AC3
Duration : 2h 0mn
Bit rate mode : Constant
Bit rate : 192 Kbps
Channel(s) : 2 channels
Channel positions : Front: L R
Sampling rate : 48.0 KHz
Bit depth : 16 bits
Compression mode : Lossy
Stream size : 166 MiB (1%)
Title : MVO
Language : Russian
Default : Yes
Forced : No

Audio #2
ID : 3
Format : AC-3
Format/Info : Audio Coding 3
Mode extension : CM (complete main)
Codec ID : A_AC3
Duration : 2h 0mn
Bit rate mode : Constant
Bit rate : 192 Kbps
Channel(s) : 2 channels
Channel positions : Front: L R
Sampling rate : 48.0 KHz
Bit depth : 16 bits
Compression mode : Lossy
Stream size : 166 MiB (1%)
Title : ORT
Language : Russian
Default : No
Forced : No

Audio #3
ID : 4
Format : AC-3
Format/Info : Audio Coding 3
Mode extension : CM (complete main)
Codec ID : A_AC3
Duration : 2h 0mn
Bit rate mode : Constant
Bit rate : 192 Kbps
Channel(s) : 2 channels
Channel positions : Front: L R
Sampling rate : 48.0 KHz
Bit depth : 16 bits
Compression mode : Lossy
Stream size : 166 MiB (1%)
Title : VHS
Language : Russian
Default : No
Forced : No

Audio #4
ID : 5
Format : DTS
Format/Info : Digital Theater Systems
Codec ID : A_DTS
Duration : 2h 0mn
Bit rate mode : Constant
Bit rate : 1 510 Kbps
Channel(s) : 6 channels
Channel positions : Front: L C R, Side: L R, LFE
Sampling rate : 48.0 KHz
Bit depth : 24 bits
Compression mode : Lossy
Delay relative to video : 11ms
Stream size : 1.27 GiB (10%)
Language : English
Default : No
Forced : No

Text #1
ID : 6
Format : UTF-8
Codec ID : S_TEXT/UTF8
Codec ID/Info : UTF-8 Plain Text
Language : Russian
Default : No
Forced : No

Text #2
ID : 7
Format : UTF-8
Codec ID : S_TEXT/UTF8
Codec ID/Info : UTF-8 Plain Text
Language : English
Default : No
Forced : No

Menu
00:00:00.000 : en:00:00:00.000
00:04:39.237 : en:00:04:39.237
00:11:05.832 : en:00:11:05.832
00:15:34.976 : en:00:15:34.976
00:22:28.013 : en:00:22:28.013
00:30:11.476 : en:00:30:11.476
00:42:58.493 : en:00:42:58.493
00:52:12.463 : en:00:52:12.463
01:00:40.095 : en:01:00:40.095
01:06:15.263 : en:01:06:15.263
01:11:18.900 : en:01:11:18.900
01:24:19.012 : en:01:24:19.012
01:28:46.238 : en:01:28:46.238
01:30:14.909 : en:01:30:14.909
01:41:32.920 : en:01:41:32.920
01:50:54.314 : en:01:50:54.314
Свернуть

Скриншоты

Изображение
Изображение
Изображение
Изображение
Изображение
Изображение
Изображение

Свернуть
Не в сети
Профиль  
 Добавлено: 2015-01-27 22:21 (спустя 4 месяца 7 дней)
Top-releaser
Аватара пользователя
Стаж: 8 лет 7 месяцев
Сообщений: 1286
Спасибок: 3421
Лайков: 7
Ап :)
Не в сети
Профиль  
Начать новую темуОтветить на тему  [ Сообщений: 2 ] 
Вы не можете начинать темы
Вы не можете отвечать на сообщения
Вы не можете редактировать свои сообщения
Вы не можете удалять свои сообщения