Правила форума

  • В этом разделе создание новых тем Запрещено.
  • Для создания новых тем пользуйтесь Корневым разделом DVD и HD фильмы.
Начать новую темуОтветить на тему  [ Сообщений: 5 ] 
Торрент файл
Размер: 9.27 GB • Зарегистрирован: 3 года 11 месяцев • Статус: Проверено
Скачан: 221 раз • Желающих скачать: 0 • Поблагодарили: 45 раз
 Раздают: 0  |  0 KB/s  ]   Качают: 0  |  0 KB/s  ] 
 Полного источника не было 3 часа 
Сообщения
 Добавлено: 2012-12-26 14:02
Модератор
Аватара пользователя
Стаж: 6 лет 10 месяцев
Возраст: 33
Сообщений: 5908
Спасибок: 61265
Лайков: 3540
Изображение

Проект X: Дорвались / Project X


Год выпуска: 2012
Страна: США
Слоган: «Вечеринка, о которой ты даже не мечтал»
Жанр: комедия
Продолжительность: 01:27:52
Перевод: Профессиональный (полное дублирование) Лицензия
Режиссер: Нима Нуризаде
Сценарий: Майкл Бэколл, Мэтт Дрэйк
Продюсер: Тодд Филлипс, Скотт Будник, Марти П. Юинг
Оператор: Кен Сенг
В ролях: Томас Манн, Оливер Купер, Джонатан Даниэль Браун, Дакс Флэйм, Кирби Блисс Блэнтон, Брэйди Эндер, Ник Нервис, Алексис Кнапп, Майлз Теллер, Питер , Маккензи
Бюджет: $12 000 000
Сборы в США: $54 731 865
Сборы в России: $3 351 273
Сборы в мире: $94 731 865
Описание: Сюжет вращается вокруг троих одноклассников, решивших устроить крутую вечеринку и прославиться на всю округу - правда, удержать события под контролем у них не получилось.
Изображение
MPAA: Изображение
Мировая премьера: 1 марта 2012
Релиз на DVD: 14 июня 2012, «CP Дистрибуция»
Релиз на Blu-ray: 21 июня 2012, «CP Дистрибуция»
Раздача группы: Изображение
Качество: BDRip (1080p)
Формат: Matroska
Видео: AVC; 1920x1080 (16:9); 23406 Kbps; 23,976 fps; 0,471 bit/pixel
Аудио: AC3; 448 Kbps; CBR; 6 ch

MediaInfo
Общее
Уникальный идентификатор : 233771920260055458587484942470211901289 (0xAFDED58A1B0A3703AF5EE9F9CD071769)
Полное имя : Proekt.X_Dorvalisj.Teatraljnaya.versiya.2012.x264.BDRip.1080p.mkv
Формат : Matroska
Версия формата : Version 2
Размер файла : 9,27 Гбайт
Продолжительность : 1 ч. 27 м.
Общий поток : 15,1 Мбит/сек
Название фильма : Project X. 2012. BDRip (1080p) - ylnian (by kinozal.tv)
Дата кодирования : UTC 2012-06-24 12:33:27
Программа кодирования : mkvmerge v5.3.0 ('I could have danced') built on Feb 9 2012 10:38:07
Библиотека кодирования : libebml v1.2.3 + libmatroska v1.3.0

Видео
Идентификатор : 1
Формат : AVC
Формат/Информация : Advanced Video Codec
Профиль формата : High@L4.1
Параметр CABAC формата : Да
Параметр ReFrames формата : 4 кадра
Идентификатор кодека : V_MPEG4/ISO/AVC
Продолжительность : 1 ч. 27 м.
Битрейт : 13,2 Мбит/сек
Ширина : 1920 пикселей
Высота : 1080 пикселей
Соотношение сторон : 16:9
Частота кадров : 23,976 кадра/сек
Цветовое пространство : YUV
Субдискретизация насыщенности : 4:2:0
Битовая глубина : 8 бит
Тип развёртки : Прогрессивная
Бит/(Пиксели*Кадры) : 0.266
Размер потока : 7,93 Гбайт (85%)
Заголовок : Project X. 2012. BDRip (1080p)
Библиотека кодирования : x264 core 124 r2197 69a0443
Настройки программы : cabac=1 / ref=4 / deblock=1:-3:-3 / analyse=0x3:0x113 / me=umh / subme=11 / psy=1 / psy_rd=1.00:0.00 / mixed_ref=1 / me_range=32 / chroma_me=1 / trellis=2 / 8x8dct=1 / cqm=0 / deadzone=21,11 / fast_pskip=0 / chroma_qp_offset=-2 / threads=6 / sliced_threads=0 / nr=0 / decimate=1 / interlaced=0 / bluray_compat=0 / constrained_intra=0 / bframes=7 / b_pyramid=2 / b_adapt=2 / b_bias=0 / direct=3 / weightb=1 / open_gop=0 / weightp=2 / keyint=250 / keyint_min=24 / scenecut=40 / intra_refresh=0 / rc_lookahead=40 / rc=2pass / mbtree=0 / bitrate=13205 / ratetol=1.0 / qcomp=0.60 / qpmin=0 / qpmax=69 / qpstep=4 / cplxblur=20.0 / qblur=0.5 / vbv_maxrate=50000 / vbv_bufsize=50000 / nal_hrd=none / ip_ratio=1.40 / pb_ratio=1.30 / aq=1:1.00
Язык : English
Default : Да
Forced : Да

Аудио #1
Идентификатор : 2
Формат : AC-3
Формат/Информация : Audio Coding 3
Расширение режима : CM (complete main)
Идентификатор кодека : A_AC3
Продолжительность : 1 ч. 27 м.
Вид битрейта : Постоянный
Битрейт : 384 Кбит/сек
Каналы : 6 каналов
Расположение каналов : Front: L C R, Side: L R, LFE
Частота : 48,0 КГц
Битовая глубина : 16 бит
Метод сжатия : С потерями
Размер потока : 241 Мбайт (3%)
Заголовок : DUB (AC3 5.1 384 kbps)
Язык : Russian
Default : Да
Forced : Да

Аудио #2
Идентификатор : 3
Формат : DTS
Формат/Информация : Digital Theater Systems
Идентификатор кодека : A_DTS
Продолжительность : 1 ч. 27 м.
Вид битрейта : Постоянный
Битрейт : 1510 Кбит/сек
Каналы : 6 каналов
Расположение каналов : Front: L C R, Side: L R, LFE
Частота : 48,0 КГц
Битовая глубина : 24 бит
Метод сжатия : С потерями
Размер потока : 949 Мбайт (10%)
Заголовок : DTS 5.1 1510 kbps
Язык : English
Default : Нет
Forced : Нет

Текст #1
Идентификатор : 4
Формат : UTF-8
Идентификатор кодека : S_TEXT/UTF8
Идентификатор кодека/Информация : UTF-8 Plain Text
Язык : Russian
Default : Да
Forced : Нет

Текст #2
Идентификатор : 5
Формат : PGS
Режим смешивания : zlib
Идентификатор кодека : S_HDMV/PGS
Идентификатор кодека/Информация : The same subtitle format used on BDs/HD-DVDs
Язык : English
Default : Нет
Forced : Нет

Меню
00:00:00.000 : en:00:00:00.000
00:10:34.425 : en:00:10:34.425
00:19:53.776 : en:00:19:53.776
00:30:14.062 : en:00:30:14.062
00:40:10.950 : en:00:40:10.950
00:51:16.240 : en:00:51:16.240
01:00:56.403 : en:01:00:56.403
01:11:22.320 : en:01:11:22.320
01:19:29.765 : en:01:19:29.765

Свернуть

Скриншоты

Изображение
Изображение
Изображение
Изображение
Свернуть
_________________
ИзображениеИзображение Изображение
Изображение
 tany1984 и di-ys1 нравится это.
Не в сети
Профиль  
 Добавлено: 2012-12-28 07:21 (спустя 1 день 17 часов)
Аватара пользователя
Стаж: 6 лет 3 месяца
Сообщений: 22
СУПЕР!!!!!!!!!!!!!!!!!!!!!!!!!!!!!!!!!!!!!!!!!!!!!! :co_ol: :co_ol: :co_ol:
Не в сети
Профиль  
 Добавлено: 2012-12-28 21:29 (спустя 14 часов)
Аватара пользователя
Стаж: 8 лет 3 месяца
Возраст: 29
Сообщений: 109
Спасибок: 3
смотрел фильм классный =) вернулся в детство =))
_________________
Изображение
Не в сети
Профиль  
 Добавлено: 2012-12-29 17:26 (спустя 19 часов)
Аватара пользователя
Стаж: 6 лет 11 месяцев
Сообщений: 129
Спасибок: 3
Лайков: 16
Говнище :ze_le_ny:
Не в сети
Профиль  
 Добавлено: 2013-01-04 03:59 (спустя 5 дней)
Стаж: 8 лет 1 месяц
Возраст: 25
Сообщений: 18
Спасибок: 4
:co_ol: я катался по полу
Не в сети
Профиль  
Начать новую темуОтветить на тему  [ Сообщений: 5 ] 
Вы не можете начинать темы
Вы не можете отвечать на сообщения
Вы не можете редактировать свои сообщения
Вы не можете удалять свои сообщения