Правила форума

  • В этом разделе создание новых тем Запрещено.
  • Для создания новых тем пользуйтесь Корневым разделом DVD и HD фильмы.
Начать новую темуОтветить на тему  [ Сообщений: 4 ] 
Торрент файл
Размер: 16.5 GB • Зарегистрирован: 3 года 11 месяцев • Статус: Проверено
Скачан: 37 раз • Желающих скачать: 0 • Поблагодарили: 10 раз
 Раздают: 0  |  0 KB/s  ]   Качают: 0  |  0 KB/s  ] 
 Полного источника не было 2 месяца 25 дней 
Сообщения
 Добавлено: 2012-12-26 12:01
Руководитель релиз-группы
Аватара пользователя
Стаж: 7 лет 4 месяца
Возраст: 31
Сообщений: 3407
Спасибок: 46729
Лайков: 5
Изображение

Проект X: Дорвались
Project X


Год выпуска: 2012
Страна: США
Слоган: «Вечеринка, о которой ты даже не мечтал»
Жанр: комедия
Продолжительность: 01:27:53
Перевод: Профессиональный (полное дублирование) [лицензия]
Режиссер: Нима Нуризаде
Сценарий: Майкл Бэколл, Мэтт Дрэйк
Продюсер: Тодд Филлипс, Скотт Будник, Марти П. Юинг, Алекс Хейнеман, Стив Ричардс
Оператор: Кен Сенг
В ролях: Томас Манн, Оливер Купер, Джонатан Даниэль Браун, Дакс Флэйм, Кирби Блисс Блэнтон
Бюджет: $12 000 000
Сборы в США: $54 731 865
Сборы в России: $3 351 273
Сборы в мире: $100 931 865
Мировая премьера: 1 марта 2012
Релиз на DVD: 19 июня 2012, «CP Дистрибуция»
Релиз на Blu-ray: 5 июля 2012, «CP Дистрибуция»
Описание: Сюжет вращается вокруг троих одноклассников, решивших устроить крутую вечеринку и прославиться на всю округу - правда, удержать события под контролем у них не получилось.

Изображение User Rating: 7.108 (29 157)
Изображение User Rating: 6.60 (73 808)
MPAA: R - Лицам до 17 лет обязательно присутствие взрослого
Раздача группы: Изображение
Качество: BD-Remux, 1080p
Формат: Matroska
Видео: MPEG-4 AVC, 23.8 Мбит/с, 1920x1080, 23.976 кадр/с
Аудио №1: AC3; 640 Kbps; CBR; 6 ch Russian
Аудио №2: DTS-HD; VBR; 6 ch; 16 bit English
Субтитры: русские (форсированные), русские (полные)
mediainfo
Формат : Matroska
Версия формата : Version 2
Размер файла : 16,5 Гбайт
Продолжительность : 1 ч. 27 м.
Режим общего битрейта : Переменный
Общий поток : 26,9 Мбит/сек
Название фильма : --SCHUMAHER--
Дата кодирования : UTC 2012-07-04 07:01:57
Программа кодирования : mkvmerge v5.6.0 ('Kenya Kane') built on May 27 2012 16:44:04
Библиотека кодирования : libebml v1.2.3 + libmatroska v1.3.0

Видео
Идентификатор : 1
Формат : AVC
Формат/Информация : Advanced Video Codec
Профиль формата : High@L4.1
Параметр CABAC формата : Да
Параметр ReFrames формата : 2 кадра
Идентификатор кодека : V_MPEG4/ISO/AVC
Продолжительность : 1 ч. 27 м.
Вид битрейта : Переменный
Битрейт : 23,6 Мбит/сек
Ширина : 1920 пикселей
Высота : 1080 пикселей
Соотношение сторон : 16:9
Частота кадров : 23,976 кадра/сек
Цветовое пространство : YUV
Субдискретизация насыщенности : 4:2:0
Битовая глубина : 8 бит
Тип развёртки : Прогрессивная
Бит/(Пиксели*Кадры) : 0.475
Размер потока : 14,5 Гбайт (88%)
Язык : English

Аудио #1
Идентификатор : 2
Формат : AC-3
Формат/Информация : Audio Coding 3
Расширение режима : CM (complete main)
Идентификатор кодека : A_AC3
Продолжительность : 1 ч. 27 м.
Вид битрейта : Постоянный
Битрейт : 640 Кбит/сек
Каналы : 6 каналов
Расположение каналов : Front: L C R, Side: L R, LFE
Частота : 48,0 КГц
Битовая глубина : 16 бит
Метод сжатия : С потерями
Размер потока : 402 Мбайт (2%)
Язык : Russian

Аудио #2
Идентификатор : 3
Формат : DTS
Формат/Информация : Digital Theater Systems
Профиль формата : MA / Core
Идентификатор кодека : A_DTS
Продолжительность : 1 ч. 27 м.
Вид битрейта : Переменный
Битрейт : 2065 Кбит/сек / 1510 Кбит/сек
Каналы : 6 каналов
Расположение каналов : Front: L C R, Side: L R, LFE
Частота : 48,0 КГц
Битовая глубина : 16 бит
Метод сжатия : Без потерь / Lossy
Язык : English

Текст #1
Идентификатор : 4
Формат : UTF-8
Идентификатор кодека : S_TEXT/UTF8
Идентификатор кодека/Информация : UTF-8 Plain Text
Заголовок : Forced
Язык : Russian

Текст #2
Идентификатор : 5
Формат : UTF-8
Идентификатор кодека : S_TEXT/UTF8
Идентификатор кодека/Информация : UTF-8 Plain Text
Заголовок : Full
Язык : Russian

Меню
00:00:00.000 : en:
00:10:34.424 : en:
00:19:53.775 : en:
00:30:14.062 : en:
00:40:10.949 : en:
00:51:16.239 : en:
01:00:56.402 : en:
01:11:22.319 : en:
01:19:29.765 : en:
01:27:52.558 : en:

Свернуть
"Знаете ли Вы, что..."
  • Съемки фильма «Проект X: Дорвались» проходили на протяжении 25 ночей с пяти вечера до пяти утра в ранчо Warner Bros. в Бёрбанке, Калифорния, где находились декорации пригородных домов. К концу фильма почти все они были уничтожены.
Свернуть
Скриншоты

Изображение

Изображение

Изображение

Изображение

Изображение

Изображение

Изображение
Свернуть
Не в сети
Профиль  
 Добавлено: 2012-12-26 12:11 (спустя 9 минут)
Модератор
Аватара пользователя
Стаж: 6 лет 10 месяцев
Возраст: 33
Сообщений: 5908
Спасибок: 61257
Лайков: 3540
:co_ol:
_________________
ИзображениеИзображение Изображение
Изображение
Не в сети
Профиль  
 Добавлено: 2013-01-27 11:27 (спустя 1 месяц)
Стаж: 7 лет
Сообщений: 3
Кто не то на раздачу плизззз)*)*)*
Не в сети
Профиль  
 Добавлено: 2015-01-27 12:38 (спустя 2 года)
Аватара пользователя
Стаж: 5 лет 6 месяцев
Возраст: 23
Сообщений: 484
Спасибок: 1403
Лайков: 1
раздайте котики :-D
Не в сети
Профиль  
Начать новую темуОтветить на тему  [ Сообщений: 4 ] 
Вы не можете начинать темы
Вы не можете отвечать на сообщения
Вы не можете редактировать свои сообщения
Вы не можете удалять свои сообщения