Правила форума

  • В этом разделе создание новых тем Запрещено.
  • Для создания новых тем пользуйтесь Корневым разделом DVD и HD фильмы.
Начать новую темуОтветить на тему  [ Сообщений: 2 ] 
Торрент файл
Размер: 5.99 GB • Зарегистрирован: 4 года 10 месяцев • Статус: Проверено
Скачан: 219 раз • Желающих скачать: 0 • Поблагодарили: 36 раз
 Раздают: 0  |  0 KB/s  ]   Качают: 0  |  0 KB/s  ] 
 Полного источника не было 2 года 5 месяцев 
Сообщения
 Добавлено: 2012-01-02 02:17
DVD Release Group
Аватара пользователя
Стаж: 7 лет 1 месяц
Сообщений: 3544
Спасибок: 246958
Лайков: 1018
Профессионал

Killer Elite


Изображение


Год выпуска: 2011
Страна: США, Omnilab Media
Жанр: Боевик, триллер
Продолжительность: 01:56:42
Перевод: Профессиональный (полное дублирование)
Субтитры: Русские, английские (BD)
Режиссер: Гэри МакКендри
В ролях: Джейсон Стэтхэм, Клайв Оуэн, Роберт Де Ниро, Ивонн Страховски, Доминик Пурселл, Адевале Акиннуойе-Агбадже, Майкл Дорман, Грант Боулер, Бен Мендельсон, Кристи Барнс Каллен
Описание: Бывшему бойцу британских силовых структур приходится забыть о тихой размеренной жизни отставника, когда его лучший друг оказывается в опасности.
Кинопоиск: 6.69 (7936)
IMDb: 6.60 (18133)
Дополнительно:
Сохранены оригинальные чаптеры как на Blu-ray.
Качество: BDRip
Формат: MKV
Видео кодек: H.264
Аудио кодек: AC3, DTS
Видео: 1280x532 23,98fps 5388kbps 0.330bit/pixel
Аудио:
Аудио Rus: AC3 48kHz 6ch 448Kbps
Аудио Eng: DTS 48kHz 6ch 1510Kbps
"MediaInfo"

Общее
Уникальный идентификатор : 254713010230777285682908268077538383999 (0xBF9FF0FD27CFF5D09AE6E0BC7C08987F)
Полное имя : Профессионал mkv\Профессионал.mkv
Формат : Matroska
Версия формата : Version 2
Размер файла : 5,99 Гбайт
Продолжительность : 1 ч. 56 м.
Общий поток : 7348 Кбит/сек
Название фильма : Killer Elite (2011) - Release for HDCLUB
Дата кодирования : UTC 2012-01-03 21:32:25
Программа кодирования : mkvmerge v4.4.0 ('Die Wiederkehr') built on Oct 31 2010 21:52:48
Библиотека кодирования : libebml v1.0.0 + libmatroska v1.0.0

Видео
Идентификатор : 1
Формат : AVC
Формат/Информация : Advanced Video Codec
Профиль формата : High@L4.1
Параметр CABAC формата : Да
Параметр ReFrames формата : 12 кадров
Идентификатор кодека : V_MPEG4/ISO/AVC
Продолжительность : 1 ч. 56 м.
Битрейт : 5388 Кбит/сек
Ширина : 1280 пикселей
Высота : 532 пикселя
Соотношение сторон : 2,40:1
Частота кадров : 23,976 кадра/сек
Цветовое пространство : YUV
Субдискретизация насыщенности : 4:2:0
Битовая глубина : 8 бит
Тип развёртки : Прогрессивная
Бит/(Пиксели*Кадры) : 0.330
Размер потока : 4,27 Гбайт (71%)
Заголовок : Release for HDCLUB
Библиотека кодирования : x264 core 116 r2074 2641b9e
Настройки программы : cabac=1 / ref=12 / deblock=1:-3:-3 / analyse=0x3:0x133 / me=umh / subme=11 / psy=1 / psy_rd=0.90:0.00 / mixed_ref=1 / me_range=32 / chroma_me=1 / trellis=2 / 8x8dct=1 / cqm=0 / deadzone=21,11 / fast_pskip=0 / chroma_qp_offset=-2 / threads=12 / sliced_threads=0 / nr=0 / decimate=0 / interlaced=0 / bluray_compat=0 / constrained_intra=0 / bframes=8 / b_pyramid=2 / b_adapt=2 / b_bias=0 / direct=3 / weightb=1 / open_gop=0 / weightp=2 / keyint=360 / keyint_min=24 / scenecut=40 / intra_refresh=0 / rc_lookahead=250 / rc=2pass / mbtree=1 / bitrate=5388 / ratetol=1.0 / qcomp=0.70 / qpmin=0 / qpmax=69 / qpstep=4 / cplxblur=20.0 / qblur=0.5 / ip_ratio=1.40 / aq=2:1.10
Язык : English

Аудио #1
Идентификатор : 2
Формат : AC-3
Формат/Информация : Audio Coding 3
Расширение режима : CM (complete main)
Идентификатор кодека : A_AC3
Продолжительность : 1 ч. 56 м.
Вид битрейта : Постоянный
Битрейт : 448 Кбит/сек
Каналы : 6 каналов
Расположение каналов : Front: L C R, Side: L R, LFE
Частота : 48,0 КГц
Битовая глубина : 16 бит
Метод сжатия : С потерями
Размер потока : 374 Мбайт (6%)
Заголовок : Дубляж AC3/5.1/448 kbps
Язык : Russian

Аудио #2
Идентификатор : 3
Формат : DTS
Формат/Информация : Digital Theater Systems
Идентификатор кодека : A_DTS
Продолжительность : 1 ч. 56 м.
Вид битрейта : Постоянный
Битрейт : 1510 Кбит/сек
Каналы : 6 каналов
Расположение каналов : Front: L C R, Side: L R, LFE
Частота : 48,0 КГц
Битовая глубина : 24 бит
Метод сжатия : С потерями
Задержка видео : 11 мс.
Размер потока : 1,23 Гбайт (21%)
Заголовок : Оригинал DTS/5.1/1536 kbps
Язык : English

Текст #1
Идентификатор : 4
Формат : UTF-8
Идентификатор кодека : S_TEXT/UTF8
Идентификатор кодека/Информация : UTF-8 Plain Text
Заголовок : Субтитры (R5)
Язык : Russian

Текст #2
Идентификатор : 5
Формат : UTF-8
Идентификатор кодека : S_TEXT/UTF8
Идентификатор кодека/Информация : UTF-8 Plain Text
Заголовок : Субтитры (BD)
Язык : English

Меню
00:00:00.000 : en:00:00:00.000
00:06:11.580 : en:00:06:11.580
00:12:40.385 : en:00:12:40.385
00:18:18.222 : en:00:18:18.222
00:24:33.389 : en:00:24:33.389
00:30:06.972 : en:00:30:06.972
00:36:41.324 : en:00:36:41.324
00:41:01.417 : en:00:41:01.417
00:46:36.293 : en:00:46:36.293
00:51:37.052 : en:00:51:37.052
00:57:32.532 : en:00:57:32.532
01:02:14.272 : en:01:02:14.272
01:07:04.896 : en:01:07:04.896
01:12:39.981 : en:01:12:39.981
01:20:23.652 : en:01:20:23.652
01:26:27.474 : en:01:26:27.474
01:32:30.628 : en:01:32:30.628
01:41:02.807 : en:01:41:02.807
01:46:07.278 : en:01:46:07.278
01:50:26.203 : en:01:50:26.203
Свернуть
"Скриншоты"

Изображение
Изображение
Изображение
Изображение
Свернуть
Раздача группы:
Изображение
Не в сети
Профиль  
 Добавлено: 2012-01-05 17:09 (спустя 3 дня)
Модератор
Аватара пользователя
Стаж: 6 лет 10 месяцев
Возраст: 33
Сообщений: 5908
Спасибок: 61252
Лайков: 3540
Помогу с раздачей.
_________________
ИзображениеИзображение Изображение
Изображение
Не в сети
Профиль  
Начать новую темуОтветить на тему  [ Сообщений: 2 ] 
Вы не можете начинать темы
Вы не можете отвечать на сообщения
Вы не можете редактировать свои сообщения
Вы не можете удалять свои сообщения