Правила форума

  • В этом разделе создание новых тем Запрещено.
  • Для создания новых тем пользуйтесь Корневым разделом DVD и HD фильмы.
Начать новую темуОтветить на тему  [ Сообщений: 3 ] 
Торрент файл
Размер: 8.31 GB • Зарегистрирован: 4 года 11 месяцев • Статус: Проверено
Скачан: 347 раз • Желающих скачать: 0 • Поблагодарили: 63 раза
 Раздают: 0  |  0 KB/s  ]   Качают: 0  |  0 KB/s  ] 
 Полного источника не было 21 день 
Сообщения
 Добавлено: 2012-01-02 21:43
Top-releaser
Аватара пользователя
Стаж: 8 лет 7 месяцев
Сообщений: 1286
Спасибок: 3420
Лайков: 7
Профессионал / Killer Elite


«May the Best Man Live»

Изображение
Год выпуска: 2011
Страна: США, Австралия
Жанр: боевик, триллер, криминал
Продолжительность: 01:56:42
Перевод: Субтитры, Профессиональный (полное дублирование)

Режиссер: Гэри МакКендри
Сценарий: Мэтт Шерринг, Ранульф Файнс
Продюсер: Майкл Буген, Тони Уинли, Стив Чэсмэн, Сигурйон Сигватссон, Дэвид Уили
Оператор: Саймон Дагган
Композитор: Райнхольд Хайль, Джонни Клаймек

В ролях: Джейсон Стэтхэм (Danny), Клайв Оуэн (Spike), Роберт Де Ниро (Hunter), Доминик Пурселл (Davies), Аден Янг (Meier), Ивонн Страховски (Anne), Бен Мендельсон (Martin), Адевале Акиннуойе-Агбадже (Agent), Дэвид Уайтели (MI6 Man), Мэтью Нэйбл (Pennock), Лейчи Халм (Harris), Фирасс Дирани (Bakhait)
Дублёры: Владимир Зайцев (Danny), Александр Груздев (Spike), Никита Прозоровский (Hunter), Илья Исаев (Davies), Александр Гаврилин (Meier), Денис Беспалый (Agent), Пётр Иващенко (Harris), Михаил Тихонов (Bakhait), Валерий Сторожик (Commander B), Алексей Борзунов (Sheikh Amr)

Описание: Бывшему бойцу британских силовых структур приходится забыть о тихой размеренной жизни отставника, когда его лучший друг оказывается в опасности.

Релиз: Изображение Раздача: Изображение

Изображение
Изображение

Бюджет: $70 000 000
Сборы в США: $25 124 966
Сборы в России: $5 987 799
Сборы в мире: $52 962 024
Мировая премьера: 10 сентября 2011
Релиз на DVD: 22 декабря 2011, «Новый Диск»


Качество: BDRip
Формат: Matroska
Видео: AVC; 1920x800 (2.40:1); 8236 kbps; 23,976 fps; 0,224 bit/pixel
Аудио №1: Russian; AC3; 448 kbps; CBR; 6 channels; 16 bit
Аудио №2: English; DTS; 1509 kbps; CBR; 6 channels; 24 bit

Субтитры №1: Russian
Субтитры №2: English

Изображение
MediaInfo
Общее
Уникальный идентификатор : 228037069363535502415680244908364513101 (0xAB8E578F649E8EC09CD7B4307331BF4D)
Полное имя :Professional.2011.D.BDRip.1080p.[R.G.KINOvNINO].mkv
Формат : Matroska
Версия формата : Version 2
Размер файла : 8,31 Гбайт
Продолжительность : 1 ч. 56 м.
Общий поток : 10,2 Мбит/сек
Название фильма : Professional.2011.D.BDRip.1080p.UNIONGANG.TV
Дата кодирования : UTC 2012-01-02 13:27:32
Программа кодирования : mkvmerge v5.1.0 ('And so it goes') built on Nov 28 2011 23:58:28
Библиотека кодирования : libebml v1.2.3 + libmatroska v1.3.0

Видео
Идентификатор : 1
Формат : AVC
Формат/Информация : Advanced Video Codec
Профиль формата : High@L4.1
Параметр CABAC формата : Да
Параметр ReFrames формата : 5 кадров
Идентификатор кодека : V_MPEG4/ISO/AVC
Продолжительность : 1 ч. 56 м.
Битрейт : 8236 Кбит/сек
Ширина : 1920 пикселей
Высота : 800 пикселей
Соотношение сторон : 2,40:1
Частота кадров : 23,976 кадра/сек
Цветовое пространство : YUV
Субдискретизация насыщенности : 4:2:0
Битовая глубина : 8 бит
Тип развёртки : Прогрессивная
Бит/(Пиксели*Кадры) : 0.224
Размер потока : 6,55 Гбайт (79%)
Заголовок : Professional.2011.D.BDRip.1080p
Библиотека кодирования : x264 core 120 r2120 0c7dab9
Настройки программы : cabac=1 / ref=5 / deblock=1:0:0 / analyse=0x3:0x113 / me=umh / subme=8 / psy=1 / psy_rd=1.00:0.00 / mixed_ref=1 / me_range=16 / chroma_me=1 / trellis=1 / 8x8dct=1 / cqm=0 / deadzone=21,11 / fast_pskip=1 / chroma_qp_offset=-2 / threads=12 / sliced_threads=0 / nr=0 / decimate=1 / interlaced=0 / bluray_compat=0 / constrained_intra=0 / bframes=3 / b_pyramid=2 / b_adapt=2 / b_bias=0 / direct=3 / weightb=1 / open_gop=0 / weightp=2 / keyint=240 / keyint_min=24 / scenecut=40 / intra_refresh=0 / rc_lookahead=50 / rc=2pass / mbtree=1 / bitrate=8236 / ratetol=1.0 / qcomp=0.60 / qpmin=0 / qpmax=69 / qpstep=4 / cplxblur=20.0 / qblur=0.5 / ip_ratio=1.40 / aq=1:1.00
Язык : English
Default : Да
Forced : Нет

Аудио #1
Идентификатор : 2
Формат : AC-3
Формат/Информация : Audio Coding 3
Расширение режима : CM (complete main)
Идентификатор кодека : A_AC3
Продолжительность : 1 ч. 56 м.
Вид битрейта : Постоянный
Битрейт : 448 Кбит/сек
Каналы : 6 каналов
Расположение каналов : Front: L C R, Side: L R, LFE
Частота : 48,0 КГц
Битовая глубина : 16 бит
Метод сжатия : С потерями
Размер потока : 374 Мбайт (4%)
Заголовок : Dub R5
Язык : Russian
Default : Да
Forced : Нет

Аудио #2
Идентификатор : 3
Формат : DTS
Формат/Информация : Digital Theater Systems
Идентификатор кодека : A_DTS
Продолжительность : 1 ч. 56 м.
Вид битрейта : Постоянный
Битрейт : 1510 Кбит/сек
Каналы : 6 каналов
Расположение каналов : Front: L C R, Side: L R, LFE
Частота : 48,0 КГц
Битовая глубина : 24 бит
Метод сжатия : С потерями
Размер потока : 1,23 Гбайт (15%)
Язык : English
Default : Нет
Forced : Нет

Текст #1
Идентификатор : 4
Формат : UTF-8
Идентификатор кодека : S_TEXT/UTF8
Идентификатор кодека/Информация : UTF-8 Plain Text
Заголовок : R5
Язык : Russian
Default : Нет
Forced : Нет

Текст #2
Идентификатор : 5
Формат : UTF-8
Идентификатор кодека : S_TEXT/UTF8
Идентификатор кодека/Информация : UTF-8 Plain Text
Язык : English
Default : Нет
Forced : Нет

Меню
00:00:00.000 : en:00:00:00.000
00:06:11.580 : en:00:06:11.580
00:12:40.385 : en:00:12:40.385
00:18:18.222 : en:00:18:18.222
00:24:33.389 : en:00:24:33.389
00:30:06.972 : en:00:30:06.972
00:36:41.324 : en:00:36:41.324
00:41:01.417 : en:00:41:01.417
00:46:36.293 : en:00:46:36.293
00:51:37.052 : en:00:51:37.052
00:57:32.532 : en:00:57:32.532
01:02:14.272 : en:01:02:14.272
01:07:04.896 : en:01:07:04.896
01:12:39.981 : en:01:12:39.981
01:20:23.652 : en:01:20:23.652
01:26:27.474 : en:01:26:27.474
01:32:30.628 : en:01:32:30.628
01:41:02.807 : en:01:41:02.807
01:46:07.278 : en:01:46:07.278
01:50:26.203 : en:01:50:26.203

Свернуть

Скриншоты

Изображение

Изображение

Изображение

Изображение

Свернуть
Не в сети
Профиль  
 Добавлено: 2013-06-13 18:58 (спустя 1 год 5 месяцев)
Top-releaser
Аватара пользователя
Стаж: 8 лет 7 месяцев
Сообщений: 1286
Спасибок: 3420
Лайков: 7
Что-то последние фильмы со Стэтхэмом похожи друг на друга. Разок глянуть можно. Рейтинг вполне оправдан.
Не в сети
Профиль  
 Добавлено: 2016-03-08 07:35 (спустя 2 года 8 месяцев)
Аватара пользователя
Стаж: 4 года 5 месяцев
Возраст: 25
Сообщений: 61
Лайков: 2
встаньте пожалуйста на раздачу
_________________
потапов
Не в сети
Профиль  
Начать новую темуОтветить на тему  [ Сообщений: 3 ] 
Вы не можете начинать темы
Вы не можете отвечать на сообщения
Вы не можете редактировать свои сообщения
Вы не можете удалять свои сообщения