Правила форума

  • В этом разделе создание новых тем Запрещено.
  • Для создания новых тем пользуйтесь Корневым разделом DVD и HD фильмы.
Начать новую темуОтветить на тему  [ Сообщений: 4 ] 
Торрент файл
Размер: 21.19 GB • Зарегистрирован: 5 лет 8 месяцев • Статус: Проверено
Скачан: 19 раз • Желающих скачать: 0 • Поблагодарили: 10 раз
 Раздают: 0  |  0 KB/s  ]   Качают: 0  |  0 KB/s  ] 
 Полного источника не было 2 года 1 месяц 
Сообщения
 Добавлено: 2011-03-19 22:01
Модератор
Аватара пользователя
Стаж: 8 лет 1 месяц
Сообщений: 1991
Спасибок: 129866
Лайков: 20
Профессионал / Le professionnel

Изображение
Год выпуска: 1981
Страна: Изображение Франция
Жанр: боевик, триллер, драма, криминал
Перевод:
Профессиональный (многоголосый, закадровый), Профессиональный (полное дублирование), Авторский (Володарский Леонид), Авторский (Кузнецов Сергей)

Режиссер: Жорж Лотнер
Сценарий: Патрик Александр, Жак Одиар, Мишель Одиар, Жорж Лотнер
Продюсер: Ален Бельмондо, Жорж Дансижер, Александр Мнушкин
Оператор: Анри Декэ
Композитор: Эннио Морриконе

В ролях:
Жан-Поль Бельмондо (Josselin Beaumont dit 'Joss'), Жан Дезайи (Le ministre), Робер Оссейн (Le commissaire Rosen), Мишель Бон (Le capitaine Valeras), Сирил Клер (Alice Ancelin), Жан-Луи Ришар (Le colonel Martin), Сидики Бакаба (Le prisonnier évadé), Пьер Сентон (Le président N'Jala), Мари-Кристин Декуар (Doris Frederiksen), Бернар-Пьер Доннадьё (L'inspecteur Farges), Элизабет Маргони (Jeanne Baumont), Пьер Вернье (Salvatore Volfoni)
Дублёры: Рудольф Панков (Josselin Beaumont dit 'Joss') (Josselin Beaumont dit 'Joss'), Тимофей Спивак (Le ministre) (Le ministre), Александр Белявский (Le commissaire Rosen) (Le commissaire Rosen), Виктор Рождественский (Le capitaine Valeras) (Le capitaine Valeras), Константин Тыртов (Le colonel Martin) (Le colonel Martin), Сергей Мартынов (Le président N'Jala) (Le président N'Jala), Станислав Захаров (L'inspecteur Farges) (L'inspecteur Farges), Владимир Антоник (Salvatore Volfoni) (Salvatore Volfoni), Ирина Губанова, Наталья Казначеева, Игорь Ясулович (Instructor Picard) (Instructor Picard), Лариса Данилина

Описание: Убить президента африканской республики. Такое задание получил секретный агент Жослен Бомон. Внезапно политика изменилась, и французское правительство сдает героя африканским властям. Сбежав с каторги, волк-одиночка возвращается на родину с одной целью: довести задание до конца. А чернокожий лидер как раз приезжает во Францию.

Изображение: 8.152 (15 123)
Изображение: 7.60 (3 811)


Доп. Информация

Бюджет: € 500 000
Мировая премьера: 21 октября 1981
Изображение Релиз на DVD: 16 декабря 2010, «Neoclassica»

Свернуть

Качество: BD Disk 1080p
Формат: BDAV
Видео: AVC; 1920x1080 (16:9); 24431 Kbps; 24 fps; 0,491 bpp
Аудио №1: Французский; AC3; 224 Kbps; CBR; 2 ch
Аудио №2: Русский; AC3; 192 Kbps; CBR; 2 ch (Многоголосый закадровый, к.ст им. Горького, 1987)
Аудио №3: Русский; AC3; 256 Kbps; CBR; 2 ch (Дубляж, Мосфильм 1990)
Аудио №4: Русский; AC3; 192 Kbps; CBR; 2 ch (Многоголосый закадровый, НТВ, Караченцов)
Аудио №5: Русский; AC3; 192 Kbps; CBR; 2 ch (Многоголосый закадровый, Неоклассика)
Аудио №6: Русский; AC3; 192 Kbps; CBR; 2 ch (Многоголосый закадровый, Тивионика)
Аудио №7: Русский; AC3; 192 Kbps; CBR; 2 ch (Одноголосый закадровый, Л.Володарский)
Аудио №8: Русский; AC3; 192 Kbps; CBR; 2 ch (Одноголосый закадровый, П.Прямостанов)
Аудио №9: Русский; AC3; 256 Kbps; CBR; 2 ch (Одноголосый закадровый, С.Кузнецов)
Аудио №10: Украинский; AC3; 192 Kbps; CBR; 2 ch (Многоголосый закадровый)

Субтитры: Русские

Знаете ли Вы, что...
  • Последняя сцена фильма снималась в поместье замка Ля-Ферьер, неподалёку от города Рамбуйе.
Свернуть
Info

Общее
Идентификатор : 0 (0x0)
Полное имя : E:\торрент\Professional\BDMV\STREAM\00000.m2ts
Формат : BDAV
Формат/Информация : Blu-ray Video
Размер файла : 20,8 Гбайт
Продолжительность : 1 ч. 47 м.
Общий поток : 27,6 Мбит/сек
Максимальный общий битрейт : 48,0 Мбит/сек

Видео
Идентификатор : 4113 (0x1011)
Идентификатор меню : 1 (0x1)
Формат : AVC
Формат/Информация : Advanced Video Codec
Профиль формата : High@L4.1
Параметр CABAC формата : Да
Параметр ReFrames формата : 4 кадры
Параметры GOP формата : M=2, N=26
Идентификатор кодека : 27
Продолжительность : 1 ч. 47 м.
Вид битрейта : Переменный
Битрейт : 24,4 Мбит/сек
Максимальный битрейт : 38,0 Мбит/сек
Ширина : 1920 пикс.
Высота : 1080 пикс.
Соотношение сторон : 16:9
Частота кадров : 24,000 кадр/сек
Цветовое пространство : YUV
Подвыборка цветности : 4:2:0
Битовая глубина : 8 бит
Тип развёртки : Прогрессивная
Бит/(Пиксели*Кадры) : 0.491
Размер потока : 18,4 Гбайт (88%)
Основные цвета : BT.709-5, BT.1361, IEC 61966-2-4, SMPTE RP177
Характеристики трансфера : BT.709-5, BT.1361
Коэффициенты матрицы : BT.709-5, BT.1361, IEC 61966-2-4 709, SMPTE RP177

Аудио #1
Идентификатор : 4352 (0x1100)
Идентификатор меню : 1 (0x1)
Формат : AC-3
Формат/Информация : Audio Coding 3
Расширение режима : CM (complete main)
Идентификатор кодека : 129
Продолжительность : 1 ч. 47 м.
Вид битрейта : Постоянный
Битрейт : 224 Кбит/сек
Канал(ы) : 2 канала(ов)
Расположение каналов : Front: L R
Частота : 48,0 КГц
Битовая глубина : 16 бит
Метод сжатия : С потерями
Размер потока : 173 Мбайт (1%)

Аудио #2
Идентификатор : 4353 (0x1101)
Идентификатор меню : 1 (0x1)
Формат : AC-3
Формат/Информация : Audio Coding 3
Расширение режима : CM (complete main)
Идентификатор кодека : 129
Продолжительность : 1 ч. 47 м.
Вид битрейта : Постоянный
Битрейт : 192 Кбит/сек
Канал(ы) : 2 канала(ов)
Расположение каналов : Front: L R
Частота : 48,0 КГц
Битовая глубина : 16 бит
Метод сжатия : С потерями
Размер потока : 148 Мбайт (1%)

Аудио #3
Идентификатор : 4354 (0x1102)
Идентификатор меню : 1 (0x1)
Формат : AC-3
Формат/Информация : Audio Coding 3
Расширение режима : CM (complete main)
Идентификатор кодека : 129
Продолжительность : 1 ч. 47 м.
Вид битрейта : Постоянный
Битрейт : 256 Кбит/сек
Канал(ы) : 2 канала(ов)
Расположение каналов : Front: L R
Частота : 48,0 КГц
Битовая глубина : 16 бит
Метод сжатия : С потерями
Размер потока : 198 Мбайт (1%)

Аудио #4
Идентификатор : 4355 (0x1103)
Идентификатор меню : 1 (0x1)
Формат : AC-3
Формат/Информация : Audio Coding 3
Расширение режима : CM (complete main)
Идентификатор кодека : 129
Продолжительность : 1 ч. 47 м.
Вид битрейта : Постоянный
Битрейт : 192 Кбит/сек
Канал(ы) : 2 канала(ов)
Расположение каналов : Front: L R
Частота : 48,0 КГц
Битовая глубина : 16 бит
Метод сжатия : С потерями
Размер потока : 148 Мбайт (1%)

Аудио #5
Идентификатор : 4356 (0x1104)
Идентификатор меню : 1 (0x1)
Формат : AC-3
Формат/Информация : Audio Coding 3
Расширение режима : CM (complete main)
Идентификатор кодека : 129
Продолжительность : 1 ч. 47 м.
Вид битрейта : Постоянный
Битрейт : 192 Кбит/сек
Канал(ы) : 2 канала(ов)
Расположение каналов : Front: L R
Частота : 48,0 КГц
Битовая глубина : 16 бит
Метод сжатия : С потерями
Размер потока : 148 Мбайт (1%)

Аудио #6
Идентификатор : 4357 (0x1105)
Идентификатор меню : 1 (0x1)
Формат : AC-3
Формат/Информация : Audio Coding 3
Расширение режима : CM (complete main)
Идентификатор кодека : 129
Продолжительность : 1 ч. 47 м.
Вид битрейта : Постоянный
Битрейт : 192 Кбит/сек
Канал(ы) : 2 канала(ов)
Расположение каналов : Front: L R
Частота : 48,0 КГц
Битовая глубина : 16 бит
Метод сжатия : С потерями
Размер потока : 148 Мбайт (1%)

Аудио #7
Идентификатор : 4358 (0x1106)
Идентификатор меню : 1 (0x1)
Формат : AC-3
Формат/Информация : Audio Coding 3
Расширение режима : CM (complete main)
Идентификатор кодека : 129
Продолжительность : 1 ч. 47 м.
Вид битрейта : Постоянный
Битрейт : 192 Кбит/сек
Канал(ы) : 2 канала(ов)
Расположение каналов : Front: L R
Частота : 48,0 КГц
Битовая глубина : 16 бит
Метод сжатия : С потерями
Размер потока : 148 Мбайт (1%)

Аудио #8
Идентификатор : 4359 (0x1107)
Идентификатор меню : 1 (0x1)
Формат : AC-3
Формат/Информация : Audio Coding 3
Расширение режима : CM (complete main)
Идентификатор кодека : 129
Продолжительность : 1 ч. 47 м.
Вид битрейта : Постоянный
Битрейт : 192 Кбит/сек
Канал(ы) : 2 канала(ов)
Расположение каналов : Front: L R
Частота : 48,0 КГц
Битовая глубина : 16 бит
Метод сжатия : С потерями
Размер потока : 148 Мбайт (1%)

Аудио #9
Идентификатор : 4360 (0x1108)
Идентификатор меню : 1 (0x1)
Формат : AC-3
Формат/Информация : Audio Coding 3
Расширение режима : CM (complete main)
Идентификатор кодека : 129
Продолжительность : 1 ч. 47 м.
Вид битрейта : Постоянный
Битрейт : 256 Кбит/сек
Канал(ы) : 2 канала(ов)
Расположение каналов : Front: L R
Частота : 48,0 КГц
Битовая глубина : 16 бит
Метод сжатия : С потерями
Размер потока : 198 Мбайт (1%)

Аудио #10
Идентификатор : 4361 (0x1109)
Идентификатор меню : 1 (0x1)
Формат : AC-3
Формат/Информация : Audio Coding 3
Расширение режима : CM (complete main)
Идентификатор кодека : 129
Продолжительность : 1 ч. 47 м.
Вид битрейта : Постоянный
Битрейт : 192 Кбит/сек
Канал(ы) : 2 канала(ов)
Расположение каналов : Front: L R
Частота : 48,0 КГц
Битовая глубина : 16 бит
Метод сжатия : С потерями
Размер потока : 148 Мбайт (1%)

Текст
Идентификатор : 4608 (0x1200)
Идентификатор меню : 1 (0x1)
Формат : PGS
Идентификатор кодека : 144
Задержка видео : 13 с.
Свернуть

Скриншоты

Изображение
Изображение
Изображение
Изображение
Изображение
Изображение
Свернуть

_________________
Себе ты можешь не качать, но раздавать другим обязан!
Не в сети
Профиль  
 Добавлено: 2011-03-22 20:43 (спустя 2 дня 22 часа)
Аватара пользователя
Стаж: 7 лет 5 месяцев
Сообщений: 21
Уж полночь...а сидера всё нет..
Не в сети
Профиль  
 Добавлено: 2014-04-01 19:46 (спустя 3 года)
Стаж: 8 лет
Возраст: 30
Сообщений: 43
ребята, помогите раздать, пожалуйста!!! :(
Не в сети
Профиль  
 Добавлено: 2014-07-08 17:15 (спустя 3 месяца 6 дней)
Аватара пользователя
Стаж: 7 лет 10 месяцев
Сообщений: 64
Лайков: 2
Помогите раздать)))
Не в сети
Профиль  
Начать новую темуОтветить на тему  [ Сообщений: 4 ] 
Вы не можете начинать темы
Вы не можете отвечать на сообщения
Вы не можете редактировать свои сообщения
Вы не можете удалять свои сообщения