Правила форума

  • В этом разделе создание новых тем Запрещено.
  • Для создания новых тем пользуйтесь Корневым разделом DVD и HD фильмы.
Начать новую темуОтветить на тему  [ Сообщений: 6 ] 
Торрент файл
Размер: 8.56 GB • Зарегистрирован: 11 месяцев • Статус: T Временный релиз
Скачан: 192 раза • Желающих скачать: 0 • Поблагодарили: 31 раз
 Раздают: 2  |  0 KB/s  ]   Качают: 0  |  0 KB/s  ] 
Сообщения
 Добавлено: 2015-12-09 13:35
DVD Release Group
Аватара пользователя
Стаж: 7 лет 1 месяц
Сообщений: 3544
Спасибок: 246765
Лайков: 1016
Прогулка

The Walk


Изображение


Год выпуска: 2015
Страна: США
Жанр: Триллер, драма, приключения, биография
Продолжительность: 02:03:05
Перевод: Профессиональный (полное дублирование) чистый звук
Режиссер: Роберт Земекис
В ролях: Джозеф Гордон-Левитт, Бен Кингсли, Стив Валентайн, Шарлотта Ле Бон, Джеймс Бэдж Дэйл, Бен Шварц, Бенедикт Сэмюэл, Мизинга Мвинга, Дэниэл Аррош, Джейсон Делайн
Описание: Вы боитесь высоты? А можете представить себя идущим по натянутому канату на высоте более 400м без всякой страховки? Потоки ветра обдувают вас, а внизу — город и тысячи взволнованных взглядов, устремленных вверх. История о том, как французский канатоходец Филипп Пети отважился совершить легендарный трюк — пройти без страховки по канату, натянутому между небоскребами в Нью-Йорке.
Изображение
Sample:
http://sendfile.su/1181613
Качество: HDTV 1080p
Формат: MKV
Видео кодек: H.264
Аудио кодек: AC3
Видео: 1920x800 29.97fps 9185kbps
Аудио:
Аудио Rus: 48kHz 2ch 384Kbps
Аудио Eng: 48kHz 2ch 384Kbps
"MediaInfo"
Формат : Matroska
Версия формата : Version 4 / Version 2
Размер файла : 8,56 Гбайт
Продолжительность : 2 ч. 3 м.
Общий поток : 9956 Кбит/сек
Название фильма : Прогулка
Дата кодирования : UTC 2015-12-09 07:02:46
Программа кодирования : mkvmerge v8.6.1 ('Flying') 64bit
Библиотека кодирования : libebml v1.3.3 + libmatroska v1.4.4
DURATION : 02:03:04.768000000
NUMBER_OF_FRAMES : 230774
NUMBER_OF_BYTES : 354468864
_STATISTICS_WRITING_APP : mkvmerge v8.6.1 ('Flying') 64bit
_STATISTICS_WRITING_DATE_UTC : 2015-12-09 07:02:46
_STATISTICS_TAGS : BPS DURATION NUMBER_OF_FRAMES NUMBER_OF_BYTES

Видео
Идентификатор : 1
Формат : AVC
Формат/Информация : Advanced Video Codec
Профиль формата : High@L4.1
Параметр CABAC формата : Да
Параметр ReFrames формата : 4 кадра
Идентификатор кодека : V_MPEG4/ISO/AVC
Продолжительность : 2 ч. 3 м.
Битрейт : 9185 Кбит/сек
Ширина : 1920 пикселей
Высота : 800 пикселей
Соотношение сторон : 2,40:1
Режим частоты кадров : Постоянный
Частота кадров : 29,970 кадров/сек
Цветовое пространство : YUV
Субдискретизация насыщенности : 4:2:0
Битовая глубина : 8 бит
Тип развёртки : Прогрессивная
Бит/(Пиксели*Кадры) : 0.200
Размер потока : 7,73 Гбайт (90%)
Заголовок : Прогулка
Библиотека кодирования : x264 core 142 r2479 dd79a61
Настройки программы : cabac=1 / ref=1 / deblock=1:0:0 / analyse=0x3:0x113 / me=hex / subme=2 / psy=1 / psy_rd=1.00:0.00 / mixed_ref=0 / me_range=16 / chroma_me=1 / trellis=0 / 8x8dct=1 / cqm=0 / deadzone=21,11 / fast_pskip=1 / chroma_qp_offset=0 / threads=12 / lookahead_threads=4 / sliced_threads=0 / nr=0 / decimate=1 / interlaced=0 / bluray_compat=0 / constrained_intra=0 / bframes=3 / b_pyramid=2 / b_adapt=1 / b_bias=0 / direct=1 / weightb=1 / open_gop=0 / weightp=1 / keyint=300 / keyint_min=30 / scenecut=40 / intra_refresh=0 / rc_lookahead=10 / rc=2pass / mbtree=1 / bitrate=9185 / ratetol=1.0 / qcomp=0.60 / qpmin=0 / qpmax=69 / qpstep=4 / cplxblur=20.0 / qblur=0.5 / vbv_maxrate=62500 / vbv_bufsize=78125 / nal_hrd=none / filler=0 / ip_ratio=1.40 / aq=1:1.00
Язык : English
Default : Да
Forced : Нет
Основные цвета : BT.709
Характеристики трансфера : BT.709
Коэффициенты матрицы : BT.709
DURATION : 02:03:04.744000000
NUMBER_OF_FRAMES : 221321
NUMBER_OF_BYTES : 8479054509
_STATISTICS_WRITING_APP : mkvmerge v8.6.1 ('Flying') 64bit
_STATISTICS_WRITING_DATE_UTC : 2015-12-09 07:02:46
_STATISTICS_TAGS : BPS DURATION NUMBER_OF_FRAMES NUMBER_OF_BYTES

Аудио #1
Идентификатор : 2
Формат : AC-3
Формат/Информация : Audio Coding 3
Расширение режима : CM (complete main)
Параметр Endianness формата : Big
Идентификатор кодека : A_AC3
Продолжительность : 2 ч. 3 м.
Вид битрейта : Постоянный
Битрейт : 384 Кбит/сек
Каналы : 2 канала
Расположение каналов : Front: L R
Частота : 48,0 КГц
Битовая глубина : 16 бит
Метод сжатия : С потерями
Задержка видео : -67 мс.
Размер потока : 338 Мбайт (4%)
Заголовок : Прогулка
Язык : Russian
Default : Да
Forced : Нет

Аудио #2
Идентификатор : 3
Формат : AC-3
Формат/Информация : Audio Coding 3
Расширение режима : CM (complete main)
Параметр Endianness формата : Big
Идентификатор кодека : A_AC3
Продолжительность : 2 ч. 3 м.
Вид битрейта : Постоянный
Битрейт : 384 Кбит/сек
Каналы : 2 канала
Расположение каналов : Front: L R
Частота : 48,0 КГц
Битовая глубина : 16 бит
Метод сжатия : С потерями
Задержка видео : -67 мс.
Размер потока : 338 Мбайт (4%)
Заголовок : Прогулка
Язык : English
Default : Нет
Forced : Нет

Текст
Идентификатор : 4
Формат : UTF-8
Идентификатор кодека : S_TEXT/UTF8
Идентификатор кодека/Информация : UTF-8 Plain Text
Заголовок : Прогулка
Язык : Russian
Default : Да
Forced : Да
Свернуть

"Скриншоты"
Изображение
Изображение
Изображение
Свернуть
 Хроник нравится это.
Не в сети
Профиль  
 Добавлено: 2015-12-13 07:45 (спустя 3 дня)
Аватара пользователя
Стаж: 6 лет 5 месяцев
Сообщений: 19944
Спасибок: 721
Лайков: 460
ща в каждый релиз будут пихать рекламу говнокозины????
_________________
It was I'am ... :jn_pu_sk:
Медали и Ордена
ИзображениеИзображение
Свернуть
Не в сети
Профиль  
 Добавлено: 2015-12-13 08:00 (спустя 14 минут)
DVD Release Group
Аватара пользователя
Стаж: 7 лет 1 месяц
Сообщений: 3544
Спасибок: 246765
Лайков: 1016
*ЖОРА*
Можно и потерпеть, если не желаете рекламу - ждите лицензию.
Не в сети
Профиль  
 Добавлено: 2015-12-13 15:27 (спустя 7 часов)
Модератор
Аватара пользователя
Стаж: 9 лет
Сообщений: 3446
Спасибок: 1556
Лайков: 77

rastor:

Качество: HDTV 1080p
Последнее время начинает туфтой попахивать .... Ну я на телефон реально экранку качественнее сниму сейчас, чем ваше HDTV :hi_hi_hi:
Что то бред какой то :ne_znayu:
_________________
Пока тут пусто.
Не в сети
Профиль  
 Добавлено: 2015-12-13 15:57 (спустя 29 минут)
DVD Release Group
Аватара пользователя
Стаж: 7 лет 1 месяц
Сообщений: 3544
Спасибок: 246765
Лайков: 1016
uran2005
Мужик сказал, мужик сделал. :co_ol:
Не в сети
Профиль  
 Добавлено: 2015-12-13 17:42 (спустя 1 час 44 минуты)
Аватара пользователя
Стаж: 6 лет 5 месяцев
Сообщений: 19944
Спасибок: 721
Лайков: 460
:hi_hi_hi:

rastor:

если не желаете рекламу
и всё-таки, можно хоть какое-то упоминание в релизе(мелким шрифтом хотя бы) о том, что здесь есть вставки рекламы(по примеру:"Имеются неотключаемые корейские субтитры")?
Про лицензию это понятно, что там всё чистенько по умолчанию, но ведь были же времена когда не пихали рекламу даже в таки экранки или полурипы и т.д.,... эта шлыга относительно недавно появилась..

Добавлено спустя 8 минут:

uran2005:

начинает туфтой попахивать
на лицо растянутое видео из 720p, т.к. и пикселы прослеживаются и мыльцо иммется... в 1080p такого не наблюдается...
_________________
It was I'am ... :jn_pu_sk:
Медали и Ордена
ИзображениеИзображение
Свернуть
Не в сети
Профиль  
Начать новую темуОтветить на тему  [ Сообщений: 6 ] 
Вы не можете начинать темы
Вы не можете отвечать на сообщения
Вы не можете редактировать свои сообщения
Вы не можете удалять свои сообщения