Правила форума

  • В этом разделе создание новых тем Запрещено.
  • Для создания новых тем пользуйтесь Корневым разделом DVD и HD фильмы.
Начать новую темуОтветить на тему  [ 1 сообщение ] 
Торрент файл
Размер: 10.96 GB • Зарегистрирован: 5 лет 8 месяцев • Статус: Проверено
Скачан: 8 раз • Желающих скачать: 0 • Поблагодарили: 5 раз
 Раздают: 0  |  0 KB/s  ]   Качают: 0  |  0 KB/s  ] 
 Полного источника не было 1 год 6 месяцев 
Сообщения
 Добавлено: 2011-03-30 22:47
Модератор
Аватара пользователя
Стаж: 8 лет 1 месяц
Сообщений: 1991
Спасибок: 129867
Лайков: 20
Прогулка в облаках / A Walk in the Clouds


«История о прекрасном чувстве.»



Изображение
Год выпуска: 1995
Страна: Изображение США, Изображение Мексика
Жанр: драма, мелодрама
Продолжительность:
01:42:15

Перевод: Оригинальный, Профессиональный (двухголосый), Профессиональный (многоголосый, закадровый) [лицензия]

Режиссер: Альфонсо Арау
Сценарий: Пьеро Теллини, Чезаре Дзаваттини, Витторио Де Бенедетти, Роберт Марк Кэмен, Марк Миллер
Продюсер: Джеймс Д. Брубэйкер, Билл Джонсон, Стефен Лайтл, Джил Неттер, Дэвид Цукер
Оператор: Эммануэль Любецки
Композитор: Морис Жарр

В ролях:
Киану Ривз (Paul Sutton), Айтана Санчес-Хихон (Victoria Aragón), Энтони Куинн (Don Pedro Aragón), Джанкарло Джаннини (Alberto Aragón), Анхелика Арагон (María José Aragón), Эванхелина Элисондо (Guadalupe Aragón), Фредди Родригес (Pedro Aragón, Jr.), Дебра Мессинг (Betty Sutton), Фебронио Коваррубиас (José Manuel), Роберто Уэрта (Jose Luis), Хуан Хименес (José María), Исмаэль Гальегос (José's Musical Son)

Описание: Пол возвращается с войны. Его жена, на которой он скоропалительно женился в одном из отпусков, оказывается для него совсем чужим человеком... По пути в Сакраменто (он работал коммивояжером - продавал шоколад) бывший солдат защитил красивую девушку Викторию Орегон от хулиганов, и она рассказала ему, что забеременела, а жених ее бросил, и она боится возвращаться в дом строгих родителей, католиков мексиканского просхождения. Пол предложил выдать себя за мужа. Он задержался на день, на два, на неделю, постепенно влечение переросло в любовь, он узнал ее семью, крутого отца, настроенного против этого брака, деда и, сам, будучи сиротой, полюбил этих людей.


Изображение: 7.695 (2 264)
Изображение: 6.30 (10 862)

MPAA: Изображение - Детям до 13 лет просмотр не желателен

Доп. Информация

Бюджет: $20 000 000
Сборы в США: $50 008 143
Сборы в мире: $95 008 143
Мировая премьера: 27 мая 1995
Изображение Релиз на DVD: 16 октября 2008, «Двадцатый Век Фокс СНГ»

Свернуть

Качество: BDRip R5

Формат: Matroska
Видео: AVC; 1920x1038 (1.850); 11261 Kbps; 23,976 fps; 0,236 bpp
Аудио №1: Russian; DTS; 754 Kbps; CBR; 6 ch; 24 bit (Многоголосый закадровый)R5
Аудио №2: Russian; DTS; 1509 Kbps; CBR; 6 ch; 24 bit (Двухголосый закадровый, С.Визгунов и подруга)
Аудио №3: English: DTS; 1509 Kbps; CBR; 6 ch; 24 bit
Субтитры №1: Russian
Субтитры №2: Russian
Субтитры №3: English


DVDInfo

General
Complete name : D:\Торенты\Progulka.v.oblakah.1995.x264.BDRip(1080p).mkv
Format : Matroska
File size : 11.0 GiB
Duration : 1h 42mn
Overall bit rate : 15.3 Mbps


Encoded date : UTC 2011-01-10 18:24:53
Writing application : mkvmerge v4.0.0 ('The Stars were mine') сборка от Jun 6 2010 16:18:42
Writing library : libebml v1.0.0 + libmatroska v1.0.0


Video
ID : 1
Format : AVC
Format/Info : Advanced Video Codec
Format profile : High@L4.1
Format settings, CABAC : Yes
Format settings, ReFrames : 4 frames
Muxing mode : Container profile=Unknown@4.1
Codec ID : V_MPEG4/ISO/AVC
Duration : 1h 42mn
Bit rate : 11.6 Mbps
Width : 1 920 pixels
Height : 1 038 pixels
Display aspect ratio : 1.850
Frame rate : 23.976 fps
Color space : YUV
Chroma subsampling : 4:2:0
Bit depth : 8 bits
Scan type : Progressive
Bits/(Pixel*Frame) : 0.242
Stream size : 8.04 GiB (73%)
Writing library : x264 core 107 r1766 f9f0035
Encoding settings : cabac=1 / ref=4 / deblock=1:-3:-3 / analyse=0x3:0x113 / me=umh / subme=10 / psy=1 / psy_rd=1.05:0.10 / mixed_ref=1 / me_range=32 / chroma_me=1 / trellis=2 / 8x8dct=1 / cqm=2 / deadzone=21,11 / fast_pskip=0 / chroma_qp_offset=-2 / threads=12 / sliced_threads=0 / nr=0 / decimate=1 / interlaced=0 / constrained_intra=0 / bframes=6 / b_pyramid=2 / b_adapt=2 / b_bias=0 / direct=3 / weightb=1 / open_gop=0 / weightp=2 / keyint=250 / keyint_min=23 / scenecut=40 / intra_refresh=0 / rc_lookahead=40 / rc=2pass / mbtree=0 / bitrate=11565 / ratetol=1.0 / qcomp=0.70 / qpmin=10 / qpmax=51 / qpstep=4 / cplxblur=20.0 / qblur=0.5 / vbv_maxrate=45000 / vbv_bufsize=40000 / ip_ratio=1.40 / pb_ratio=1.30 / aq=1:0.80 / nal_hrd=none


Audio #1
ID : 2
Format : DTS
Format/Info : Digital Theater Systems
Codec ID : A_DTS
Duration : 1h 42mn
Bit rate mode : Constant
Bit rate : 755 Kbps
Channel(s) : 6 channels
Channel positions : Front: L C R, Side: L R, LFE
Sampling rate : 48.0 KHz
Bit depth : 24 bits
Stream size : 552 MiB (5%)
Title : MVO
Language : Russian


Audio #2
ID : 3
Format : DTS
Format/Info : Digital Theater Systems
Codec ID : A_DTS
Duration : 1h 42mn
Bit rate mode : Constant
Bit rate : 1 510 Kbps
Channel(s) : 6 channels
Channel positions : Front: L C R, Side: L R, LFE
Sampling rate : 48.0 KHz
Bit depth : 24 bits
Stream size : 1.08 GiB (10%)
Title : DVO
Language : Russian


Audio #3
ID : 4
Format : DTS
Format/Info : Digital Theater Systems
Codec ID : A_DTS
Duration : 1h 42mn
Bit rate mode : Constant
Bit rate : 1 510 Kbps
Channel(s) : 6 channels
Channel positions : Front: L C R, Side: L R, LFE
Sampling rate : 48.0 KHz
Bit depth : 24 bits
Stream size : 1.08 GiB (10%)


Text #1
ID : 5
Format : UTF-8
Codec ID : S_TEXT/UTF8
Codec ID/Info : UTF-8 Plain Text
Title : Rus(Forced)
Language : Russian


Text #2
ID : 6
Format : UTF-8
Codec ID : S_TEXT/UTF8
Codec ID/Info : UTF-8 Plain Text
Title : Rus(Full)
Language : Russian


Text #3
ID : 7
Format : UTF-8
Codec ID : S_TEXT/UTF8
Codec ID/Info : UTF-8 Plain Text
Свернуть
Скриншоты

Изображение Изображение Изображение Изображение Изображение
Свернуть

_________________
Себе ты можешь не качать, но раздавать другим обязан!
Не в сети
Профиль  
Начать новую темуОтветить на тему  [ 1 сообщение ] 
Вы не можете начинать темы
Вы не можете отвечать на сообщения
Вы не можете редактировать свои сообщения
Вы не можете удалять свои сообщения