Правила форума

  • В этом разделе создание новых тем Запрещено.
  • Для создания новых тем пользуйтесь Корневым разделом DVD и HD фильмы.
Начать новую темуОтветить на тему  [ Сообщений: 3 ] 
Торрент файл
Размер: 8.86 GB • Зарегистрирован: 2 года 8 месяцев • Статус: Проверено
Скачан: 76 раз • Желающих скачать: 0 • Поблагодарили: 34 раза
 Раздают: 1  |  0 KB/s  ]   Качают: 0  |  0 KB/s  ] 
Сообщения
 Добавлено: 2014-03-14 15:53
Аватара пользователя
Стаж: 9 лет 1 месяц
Сообщений: 8087
Спасибок: 122317
Лайков: 1195
Прогулки с динозаврами 3D / Walking with Dinosaurs 3D

«Величайшее приключение за 70 миллионов лет»

Изображение


Год выпуска: 2013
Страна: Изображение США Изображение Великобритания Изображение Индия
Жанр: семейный
Продолжительность: 01:27:23
Субтитры: Русские, английские
Перевод: Профессиональный (полное дублирование) [Лицензия]


Режиссер: Бэрри Кук, Нил Найтингейл
Сценарий: Джон Колли
Продюсер: Майк Дэвлин, Люк Хетерингтон, Аманда Хилл
Композитор: Пол Леонард-Морган

В ролях: Чарли Роу, Карл Урбан, Ангури Райс, Джон Легуизамо, Джастин Лонг, Скайлер Стоун, Тия Сиркар, Клэй Сэвадж, Джуд Тинсели, Мэри Мэтилин Маусер

Описание: «Прогулки с динозаврами» — это увлекательное путешествие с полным погружением в 3D-реальность, созданную по инновационной технологии CGI. Мы увидим, как выглядели динозавры, как они жили и с какими опасностями им пришлось столкнуться. Главный герой истории — храбрый динозаврик Патчи, он самый маленький в семье, но именно ему предстоит стать лидером и спасти своих сородичей.

Изображение Изображение

Раздача группы: Изображение

Качество: BDRip (1080p)
Формат: Matroska
Видео: MPEG-4 AVC, 11.3 Мбит/с, 1920x800
Аудио №1: Русский (DTS, 48,0 КГц, 6 ch, 768 Кбит/c)
Аудио №2: Русский (AC3, 48,0 КГц, 6 ch, 448 Кбит/c)
Аудио №3: Украинский (AC3, 48,0 КГц, 6 ch, 448 Кбит/c)
Аудио №4: Английский (DTS, 48,0 КГц, 6 ch, 1510 Кбит/c)

MediaInfo
Общее
Уникальный идентификатор : 180224177445948095986120644210528641661 (0x8795E9FC341CE698A3759273414C627D)
Полное имя : C:\Фильмы\Walking.With.Dinosaurs.2013.1080p.mkv
Формат : Matroska
Версия формата : Version 2
Размер файла : 8,86 Гбайт
Продолжительность : 1 ч. 27 м.
Общий поток : 14,5 Мбит/сек
Название фильма : nnportal
Дата кодирования : UTC 2014-03-14 12:27:07
Программа кодирования : mkvmerge v5.7.0 ('The Whirlwind') built on Jul 29 2012 15:12:35
Библиотека кодирования : libebml v1.2.3 + libmatroska v1.3.0

Видео
Идентификатор : 1
Формат : AVC
Формат/Информация : Advanced Video Codec
Профиль формата : High@L4.1
Параметр CABAC формата : Да
Параметр ReFrames формата : 5 кадров
Режим смешивания : Header stripping
Идентификатор кодека : V_MPEG4/ISO/AVC
Продолжительность : 1 ч. 27 м.
Битрейт : 11,3 Мбит/сек
Ширина : 1920 пикселей
Высота : 800 пикселей
Соотношение сторон : 2,40:1
Режим частоты кадров : Постоянный
Частота кадров : 23,976 кадра/сек
Цветовое пространство : YUV
Субдискретизация насыщенности : 4:2:0
Битовая глубина : 8 бит
Тип развёртки : Прогрессивная
Бит/(Пиксели*Кадры) : 0.308
Размер потока : 6,75 Гбайт (76%)
Библиотека кодирования : x264 core 142 r2389+41 02cb608 tMod [8-bit@all X86_64]
Настройки программы : cabac=1 / ref=5 / deblock=1:-3:-3 / analyse=0x3:0x113 / me=umh / subme=11 / psy=1 / fade_compensate=0.00 / psy_rd=0.95:0.00 / mixed_ref=1 / me_range=32 / chroma_me=1 / trellis=2 / 8x8dct=1 / cqm=0 / deadzone=21,11 / fast_pskip=1 / chroma_qp_offset=-2 / threads=16 / lookahead_threads=2 / sliced_threads=0 / nr=0 / decimate=1 / interlaced=0 / bluray_compat=0 / constrained_intra=0 / fgo=0 / bframes=8 / b_pyramid=2 / b_adapt=2 / b_bias=0 / direct=3 / weightb=1 / open_gop=0 / weightp=2 / keyint=240 / keyint_min=23 / scenecut=40 / intra_refresh=0 / rc=2pass / mbtree=0 / bitrate=11349 / ratetol=1.0 / qcomp=0.70 / qpmin=0:0:0 / qpmax=69:69:69 / qpstep=4 / cplxblur=20.0 / qblur=0.5 / ip_ratio=1.40 / pb_ratio=1.30 / aq=4:0.70 / aq-sensitivity=10.00 / aq-factor=1.00:1.00:1.00 / aq2=0 / aq3=0
Язык : English
Default : Да
Forced : Нет

Аудио #1
Идентификатор : 2
Формат : DTS
Формат/Информация : Digital Theater Systems
Режим : 16
Параметр Endianness формата : Big
Идентификатор кодека : A_DTS
Продолжительность : 1 ч. 27 м.
Вид битрейта : Постоянный
Битрейт : 768 Кбит/сек
Каналы : 6 каналов
Расположение каналов : Front: L C R, Side: L R, LFE
Частота : 48,0 КГц
Битовая глубина : 24 бит
Метод сжатия : С потерями
Размер потока : 480 Мбайт (5%)
Язык : Russian
Default : Да
Forced : Нет

Аудио #2
Идентификатор : 3
Формат : AC-3
Формат/Информация : Audio Coding 3
Расширение режима : CM (complete main)
Параметр Endianness формата : Big
Идентификатор кодека : A_AC3
Продолжительность : 1 ч. 27 м.
Вид битрейта : Постоянный
Битрейт : 448 Кбит/сек
Каналы : 6 каналов
Расположение каналов : Front: L C R, Side: L R, LFE
Частота : 48,0 КГц
Битовая глубина : 16 бит
Метод сжатия : С потерями
Размер потока : 280 Мбайт (3%)
Язык : Russian
Default : Нет
Forced : Нет

Аудио #3
Идентификатор : 4
Формат : AC-3
Формат/Информация : Audio Coding 3
Расширение режима : CM (complete main)
Параметр Endianness формата : Big
Идентификатор кодека : A_AC3
Продолжительность : 1 ч. 27 м.
Вид битрейта : Постоянный
Битрейт : 448 Кбит/сек
Каналы : 6 каналов
Расположение каналов : Front: L C R, Side: L R, LFE
Частота : 48,0 КГц
Битовая глубина : 16 бит
Метод сжатия : С потерями
Размер потока : 280 Мбайт (3%)
Язык : Ukrainian
Default : Нет
Forced : Нет

Аудио #4
Идентификатор : 5
Формат : DTS
Формат/Информация : Digital Theater Systems
Режим : 16
Параметр Endianness формата : Big
Идентификатор кодека : A_DTS
Продолжительность : 1 ч. 27 м.
Вид битрейта : Постоянный
Битрейт : 1509 Кбит/сек
Каналы : 6 каналов
Расположение каналов : Front: L C R, Side: L R, LFE
Частота : 48,0 КГц
Битовая глубина : 24 бит
Метод сжатия : С потерями
Размер потока : 943 Мбайт (10%)
Язык : English
Default : Нет
Forced : Нет

Текст #1
Идентификатор : 6
Формат : UTF-8
Идентификатор кодека : S_TEXT/UTF8
Идентификатор кодека/Информация : UTF-8 Plain Text
Язык : Russian
Default : Нет
Forced : Нет

Текст #2
Идентификатор : 7
Формат : UTF-8
Идентификатор кодека : S_TEXT/UTF8
Идентификатор кодека/Информация : UTF-8 Plain Text
Заголовок : English
Язык : English
Default : Нет
Forced : Нет

Текст #3
Идентификатор : 8
Формат : UTF-8
Идентификатор кодека : S_TEXT/UTF8
Идентификатор кодека/Информация : UTF-8 Plain Text
Заголовок : English SDH
Язык : English
Default : Нет
Forced : Нет

Меню #1
00:00:00.000 : en:00:00:00.000
00:01:44.771 : en:00:01:44.771
00:05:21.196 : en:00:05:21.196
00:07:27.989 : en:00:07:27.989
00:12:06.351 : en:00:12:06.351
00:14:47.220 : en:00:14:47.220
00:17:04.190 : en:00:17:04.190
00:18:30.609 : en:00:18:30.609
00:21:47.389 : en:00:21:47.389
00:24:30.761 : en:00:24:30.761
00:27:07.459 : en:00:27:07.459
00:28:28.206 : en:00:28:28.206
00:30:40.756 : en:00:30:40.756
00:32:58.643 : en:00:32:58.643
00:37:38.006 : en:00:37:38.006
00:42:02.562 : en:00:42:02.562
00:44:00.096 : en:00:44:00.096
00:47:36.103 : en:00:47:36.103
00:50:59.473 : en:00:50:59.473
00:52:51.043 : en:00:52:51.043
00:56:49.281 : en:00:56:49.281
00:58:20.997 : en:00:58:20.997
01:02:48.973 : en:01:02:48.973
01:06:45.627 : en:01:06:45.627
01:10:40.319 : en:01:10:40.319
01:16:54.485 : en:01:16:54.485
01:18:40.466 : en:01:18:40.466
01:20:15.811 : en:01:20:15.811

Меню #2
00:00:00.000 : en:00:00:00.000
00:01:44.771 : en:00:01:44.771
00:05:21.196 : en:00:05:21.196
00:07:27.989 : en:00:07:27.989
00:12:06.351 : en:00:12:06.351
00:14:47.220 : en:00:14:47.220
00:17:04.190 : en:00:17:04.190
00:18:30.609 : en:00:18:30.609
00:21:47.389 : en:00:21:47.389
00:24:30.761 : en:00:24:30.761
00:27:07.459 : en:00:27:07.459
00:28:28.206 : en:00:28:28.206
00:30:40.756 : en:00:30:40.756
00:32:58.643 : en:00:32:58.643
00:37:38.006 : en:00:37:38.006
00:42:02.562 : en:00:42:02.562
00:44:00.096 : en:00:44:00.096
00:47:36.103 : en:00:47:36.103
00:50:59.473 : en:00:50:59.473
00:52:51.043 : en:00:52:51.043
00:56:49.281 : en:00:56:49.281
00:58:20.997 : en:00:58:20.997
01:02:48.973 : en:01:02:48.973
01:06:45.627 : en:01:06:45.627
01:10:40.319 : en:01:10:40.319
01:16:54.485 : en:01:16:54.485
01:18:40.466 : en:01:18:40.466
01:20:15.811 : en:01:20:15.811
Свернуть
Знаете ли вы, что...
В исследовании, опубликованном в декабре 2013 года, буквально за несколько дней до выхода фильма в прокат, говорится о том, что у эдмонтозавров было что-то в духе «мясистой бородки» или гребня на голове. У моделей в фильме естественно не хватает этой детали.

Тираннозавры в этом фильме чешуйчатые, потому что их модели были сделаны еще до того, как произошло открытие гигантского пернатого ютираннуса.

Режиссер-аниматор Марко Маренги работал аниматором и в оригинальном сериале «BBC: Прогулки с динозаврами» (1999).

Хотя тот факт, что у маленьких хищных динозавров были перья, был известен с конца девяностых годов, это один из первых фильмов, в котором показали таких динозавров. Первый фильм, в котором показали хищников с перьями, был «Парк Юрского периода 3» (2001). Также перья могли появиться в мультфильме «Динозавр» (2000), но ограничения по бюджету и по возможностям анимации на тот момент заставили создателей отказаться от этой идеи.

Свернуть
Скриншоты
Изображение
Изображение
Изображение
Свернуть
В сети
Профиль  
 Добавлено: 2014-03-16 14:26 (спустя 1 день 22 часа)
Аватара пользователя
Стаж: 7 лет 6 месяцев
Сообщений: 36
стереопара вертикальная или горизонтальная?
Не в сети
Профиль  
 Добавлено: 2014-03-16 14:44 (спустя 18 минут)
Аватара пользователя
Стаж: 9 лет 1 месяц
Сообщений: 8087
Спасибок: 122317
Лайков: 1195
DoctorZ
это 2D рип!
В сети
Профиль  
Начать новую темуОтветить на тему  [ Сообщений: 3 ] 
Вы не можете начинать темы
Вы не можете отвечать на сообщения
Вы не можете редактировать свои сообщения
Вы не можете удалять свои сообщения