Правила форума

  • В этом разделе создание новых тем Запрещено.
  • Для создания новых тем пользуйтесь Корневым разделом DVD и HD фильмы.
Начать новую темуОтветить на тему  [ 1 сообщение ] 
Торрент файл
Размер: 5.43 GB • Зарегистрирован: 3 года 1 месяц • Статус: Проверено
Скачан: 10 раз • Желающих скачать: 0 • Поблагодарили: 5 раз
 Раздают: 0  |  0 KB/s  ]   Качают: 0  |  0 KB/s  ] 
 Полного источника не было 1 год 8 месяцев 
Сообщения
 Добавлено: 2013-10-15 06:48
DVD Release Group
Аватара пользователя
Стаж: 7 лет 1 месяц
Сообщений: 3569
Спасибок: 247741
Лайков: 1020
Проклятие Чаки

Curse of Chucky


Изображение


Год выпуска: 2013
Страна: США
Жанр: Ужасы, триллер
Продолжительность: 01:36:41
Перевод: Профессиональный (полное дублирование)
Режиссер: Дон Манчини
В ролях: Брэд Дуриф, Даниэль Бисутти, Эй Мартинез, Фиона Дуриф, Бреннан Эллиотт, Алекс Винсент, Шэнтал Куэснел, Мейтленд МакКоннелл, Али Татарин, Кэлли Берард
Описание: В центре событий окажется молодая женщина по имени Ника тяжело переживающая самоубийство матери. Ее старшая сестра Барбара — властная, волевая женщина, — приезжает вместе с семьей к Нике, чтобы поддержать ее и уладить дела матери. Пока сестры заняты делом, малолетняя дочь Барбары находит в доме посылку пришедшую от неизвестного адресата, а в ней рыжеволосую куклу Чаки. Вскоре происходит череда кровавых убийств. Ника начинает подозревать, что в убийствах неким образом замешана кукла. По ходу дела выясняется, что у Чаки во всем этом есть особый интерес. Он решил закончить работу которую начал 20 лет назад, и в этот раз он намерен довести дело до кровавого и шокирующего финала.
Изображение
Дополнительно: Сохранены оригинальные чаптеры как на Blu-Ray
Качество: BDRip 720p
Формат: MKV
Видео кодек: H.264
Аудио кодек: DTS
Видео: 1280x720 23.98fps 5767kbps
Аудио:
Аудио Rus: DTS 48kHz 6ch 755kbps
Аудио Eng: DTS 48kHz 6ch 1510kbps
"MediaInfo"
Формат : Matroska
Версия формата : Version 2
Размер файла : 5,43 Гбайт
Продолжительность : 1 ч. 36 м.
Общий поток : 8047 Кбит/сек
Дата кодирования : UTC 2013-10-15 02:32:45
Программа кодирования : mkvmerge v5.4.0 ('Piper') built on Mar 10 2012 13:34:39
Библиотека кодирования : libebml v1.2.3 + libmatroska v1.3.0

Видео
Идентификатор : 1
Формат : AVC
Формат/Информация : Advanced Video Codec
Профиль формата : High@L4.1
Параметр CABAC формата : Да
Параметр ReFrames формата : 9 кадров
Идентификатор кодека : V_MPEG4/ISO/AVC
Продолжительность : 1 ч. 36 м.
Битрейт : 5767 Кбит/сек
Ширина : 1280 пикселей
Высота : 720 пикселей
Соотношение сторон : 16:9
Частота кадров : 23,976 кадра/сек
Цветовое пространство : YUV
Субдискретизация насыщенности : 4:2:0
Битовая глубина : 8 бит
Тип развёртки : Прогрессивная
Бит/(Пиксели*Кадры) : 0.261
Размер потока : 3,80 Гбайт (70%)
Библиотека кодирования : x264 core 138 r2359+704+48 3f879a0 tMod [8-bit@all X86_64]
Настройки программы : cabac=1 / ref=9 / deblock=1:-2:-2 / analyse=0x3:0x133 / me=umh / subme=11 / psy=1 / fade_compensate=0.00 / psy_rd=1.05:0.10 / mixed_ref=1 / me_range=32 / chroma_me=1 / trellis=2 / 8x8dct=1 / cqm=0 / deadzone=21,11 / fast_pskip=0 / chroma_qp_offset=-3 / threads=12 / lookahead_threads=2 / sliced_threads=0 / nr=0 / decimate=1 / interlaced=0 / bluray_compat=0 / constrained_intra=0 / fgo=0 / bframes=8 / b_pyramid=2 / b_adapt=2 / b_bias=0 / direct=3 / weightb=1 / open_gop=0 / weightp=2 / keyint=250 / keyint_min=23 / scenecut=40 / intra_refresh=0 / rc=2pass / mbtree=0 / bitrate=5767 / ratetol=1.0 / qcomp=0.70 / qpmin=0:0:0 / qpmax=69:69:69 / qpstep=4 / cplxblur=20.0 / qblur=0.5 / ip_ratio=1.40 / pb_ratio=1.30 / aq=3:0.80 / aq-sensitivity=10.00 / aq-factor=1.00:1.00:1.00 / aq2=0 / aq3=0
Язык : English
Default : Да
Forced : Нет
Коэффициенты матрицы : BT.709-5, BT.1361, IEC 61966-2-4 709, SMPTE RP177

Аудио #1
Идентификатор : 2
Формат : DTS
Формат/Информация : Digital Theater Systems
Идентификатор кодека : A_DTS
Продолжительность : 1 ч. 36 м.
Вид битрейта : Постоянный
Битрейт : 755 Кбит/сек
Каналы : 6 каналов
Расположение каналов : Front: L C R, Side: L R, LFE
Частота : 48,0 КГц
Битовая глубина : 24 бит
Метод сжатия : С потерями
Размер потока : 522 Мбайт (9%)
Язык : Russian
Default : Да
Forced : Нет

Аудио #2
Идентификатор : 3
Формат : DTS
Формат/Информация : Digital Theater Systems
Идентификатор кодека : A_DTS
Продолжительность : 1 ч. 36 м.
Вид битрейта : Постоянный
Битрейт : 1510 Кбит/сек
Каналы : 6 каналов
Расположение каналов : Front: L C R, Side: L R, LFE
Частота : 48,0 КГц
Битовая глубина : 24 бит
Метод сжатия : С потерями
Размер потока : 1,02 Гбайт (19%)
Язык : English
Default : Нет
Forced : Нет

Меню #1
00:00:00.000 : en:00:00:00.000
00:04:45.410 : en:00:04:45.410
00:08:48.486 : en:00:08:48.486
00:15:30.680 : en:00:15:30.680
00:20:24.306 : en:00:20:24.306
00:27:34.653 : en:00:27:34.653
00:32:42.502 : en:00:32:42.502
00:37:47.140 : en:00:37:47.140
00:43:51.671 : en:00:43:51.671
00:46:54.186 : en:00:46:54.186
00:51:29.336 : en:00:51:29.336
00:56:46.903 : en:00:56:46.903
01:01:29.686 : en:01:01:29.686
01:05:34.347 : en:01:05:34.347
01:09:09.270 : en:01:09:09.270
01:13:41.250 : en:01:13:41.250
01:20:23.235 : en:01:20:23.235
01:24:53.505 : en:01:24:53.505
01:28:31.765 : en:01:28:31.765
01:31:47.460 : en:01:31:47.460

Меню #2
00:00:00.097 : en:00:00:00.097
Свернуть

"Скриншоты"
Изображение
Изображение
Изображение
Изображение
Изображение
Изображение
Изображение
Изображение
Изображение
Свернуть

Раздача группы:
Изображение
Не в сети
Профиль  
Начать новую темуОтветить на тему  [ 1 сообщение ] 
Вы не можете начинать темы
Вы не можете отвечать на сообщения
Вы не можете редактировать свои сообщения
Вы не можете удалять свои сообщения