Правила форума

  • В этом разделе создание новых тем Запрещено.
  • Для создания новых тем пользуйтесь Корневым разделом DVD и HD фильмы.
Начать новую темуОтветить на тему  [ Сообщений: 4 ] 
Торрент файл
Размер: 9.03 GB • Зарегистрирован: 3 года 1 месяц • Статус: Проверено
Скачан: 52 раза • Желающих скачать: 0 • Поблагодарили: 25 раз
 Раздают: 0  |  0 KB/s  ]   Качают: 0  |  0 KB/s  ] 
 Полного источника не было 1 месяц 20 дней 
Сообщения
 Добавлено: 2013-10-15 11:13
Аватара пользователя
Стаж: 9 лет 1 месяц
Сообщений: 8093
Спасибок: 122325
Лайков: 1195
Проклятие Чаки / Curse of Chucky

«Be afraid. Be effing afraid»

Изображение


Год выпуска: 2013
Страна: Изображение США
Жанр: ужасы, триллер
Продолжительность: 01:36:41
Субтитры: Английские
Перевод: Профессиональный (полное дублирование) [Лицензия]


Режиссер: Дон Манчини
Сценарий: Дон Манчини
Продюсер: Дэвид Киршнер, Дон Манчини, Гари Олдройд
Оператор: Майкл Маршалл
Композитор: Джозеф ЛоДука

В ролях: Брэд Дуриф, Даниэль Бисутти, Кевин Андерсон, Эй Мартинез, Фиона Дуриф, Бреннан Эллиотт, Шэнтал Куэснел, Уилл Войтович, Мейтленд МакКоннелл

Описание: В центре событий окажется молодая женщина по имени Ника тяжело переживающая самоубийство матери. Ее старшая сестра Барбара — властная, волевая женщина, — приезжает вместе с семьей к Нике, чтобы поддержать ее и уладить дела матери. Пока сестры заняты делом, малолетняя дочь Барбары находит в доме посылку пришедшую от неизвестного адресата, а в ней рыжеволосую куклу Чаки. Вскоре происходит череда кровавых убийств. Ника начинает подозревать, что в убийствах неким образом замешана кукла. По ходу дела выясняется, что у Чаки во всем этом есть особый интерес. Он решил закончить работу которую начал 20 лет назад, и в этот раз он намерен довести дело до кровавого и шокирующего финала.

Изображение Изображение

Раздача группы: Изображение

Качество: BDRip (1080p)
Формат: Matroska
Видео: MPEG-4 AVC, 10.6 Мбит/с, 1920x1080
Аудио №1: Русский (AC3, 48,0 КГц, 6 ch, 448 Кбит/c)
Аудио №2: Русский (DTS, 48,0 КГц, 6 ch, 768 Кбит/c)
Аудио №3: Английский (DTS, 48,0 КГц, 6 ch, 1510 Кбит/c)

MediaInfo
Общее
Уникальный идентификатор : 249001260068431560470445796221311499060 (0xBB53E5F6B338F7CC9A891FBC2413BB34)
Полное имя : C:\Фильмы\Curse.Of.Chucky.2013.Unrated.BluRay.1080p.DTS.x264-CHD.R.G.Daredevil.mkv
Формат : Matroska
Версия формата : Version 2
Размер файла : 9,03 Гбайт
Продолжительность : 1 ч. 36 м.
Общий поток : 13,4 Мбит/сек
Дата кодирования : UTC 2013-10-15 02:54:50
Программа кодирования : mkvmerge v6.3.0 ('You can't stop me!') built on Jun 28 2013 20:09:41
Библиотека кодирования : libebml v1.3.0 + libmatroska v1.4.0

Видео
Идентификатор : 1
Формат : AVC
Формат/Информация : Advanced Video Codec
Профиль формата : High@L4.1
Параметр CABAC формата : Да
Параметр ReFrames формата : 4 кадра
Идентификатор кодека : V_MPEG4/ISO/AVC
Продолжительность : 1 ч. 36 м.
Битрейт : 10,6 Мбит/сек
Ширина : 1920 пикселей
Высота : 1080 пикселей
Соотношение сторон : 16:9
Режим частоты кадров : Постоянный
Частота кадров : 23,976 кадра/сек
Цветовое пространство : YUV
Субдискретизация насыщенности : 4:2:0
Битовая глубина : 8 бит
Тип развёртки : Прогрессивная
Бит/(Пиксели*Кадры) : 0.214
Размер потока : 7,01 Гбайт (78%)
Заголовок : Curse.Of.Chucky.2013.Unrated.BluRay.1080p.DTS.x264-CHD
Библиотека кодирования : x264 core 135 r2345 f0c1c53
Настройки программы : cabac=1 / ref=4 / deblock=1:-3:-3 / analyse=0x3:0x113 / me=umh / subme=10 / psy=1 / psy_rd=1.00:0.05 / mixed_ref=1 / me_range=32 / chroma_me=1 / trellis=2 / 8x8dct=1 / cqm=0 / deadzone=21,11 / fast_pskip=0 / chroma_qp_offset=-2 / threads=12 / lookahead_threads=1 / sliced_threads=0 / nr=0 / decimate=1 / interlaced=0 / bluray_compat=0 / constrained_intra=0 / bframes=4 / b_pyramid=2 / b_adapt=2 / b_bias=0 / direct=3 / weightb=1 / open_gop=0 / weightp=2 / keyint=250 / keyint_min=23 / scenecut=40 / intra_refresh=0 / rc=2pass / mbtree=0 / bitrate=10635 / ratetol=1.0 / qcomp=0.70 / qpmin=0 / qpmax=69 / qpstep=4 / cplxblur=20.0 / qblur=0.5 / ip_ratio=1.40 / pb_ratio=1.30 / aq=2:1.00
Язык : English
Default : Да
Forced : Нет

Аудио #1
Идентификатор : 2
Формат : AC-3
Формат/Информация : Audio Coding 3
Расширение режима : CM (complete main)
Параметр Endianness формата : Big
Идентификатор кодека : A_AC3
Продолжительность : 1 ч. 36 м.
Вид битрейта : Постоянный
Битрейт : 448 Кбит/сек
Каналы : 6 каналов
Расположение каналов : Front: L C R, Side: L R, LFE
Частота : 48,0 КГц
Битовая глубина : 16 бит
Метод сжатия : С потерями
Размер потока : 310 Мбайт (3%)
Язык : Russian
Default : Да
Forced : Нет

Аудио #2
Идентификатор : 3
Формат : DTS
Формат/Информация : Digital Theater Systems
Режим : 16
Параметр Endianness формата : Big
Идентификатор кодека : A_DTS
Продолжительность : 1 ч. 36 м.
Вид битрейта : Постоянный
Битрейт : 768 Кбит/сек
Каналы : 6 каналов
Расположение каналов : Front: L C R, Side: L R, LFE
Частота : 48,0 КГц
Битовая глубина : 24 бит
Метод сжатия : С потерями
Размер потока : 531 Мбайт (6%)
Язык : Russian
Default : Нет
Forced : Нет

Аудио #3
Идентификатор : 4
Формат : DTS
Формат/Информация : Digital Theater Systems
Режим : 16
Параметр Endianness формата : Big
Идентификатор кодека : A_DTS
Продолжительность : 1 ч. 36 м.
Вид битрейта : Постоянный
Битрейт : 1509 Кбит/сек
Каналы : 6 каналов
Расположение каналов : Front: L C R, Side: L R, LFE
Частота : 48,0 КГц
Битовая глубина : 24 бит
Метод сжатия : С потерями
Размер потока : 1,02 Гбайт (11%)
Заголовок : Curse.Of.Chucky.2013.Unrated.BluRay.1080p.DTS.x264-CHD
Язык : English
Default : Нет
Forced : Нет

Текст
Идентификатор : 5
Формат : PGS
Режим смешивания : zlib
Идентификатор кодека : S_HDMV/PGS
Идентификатор кодека/Информация : The same subtitle format used on BDs/HD-DVDs
Заголовок : Curse.Of.Chucky.2013.Unrated.BluRay.1080p.DTS.x264-CHD
Язык : English
Default : Да
Forced : Нет

Меню
00:00:00.000 : en:00:00:00.000
00:04:45.410 : en:00:04:45.410
00:08:48.486 : en:00:08:48.486
00:15:30.680 : en:00:15:30.680
00:20:24.306 : en:00:20:24.306
00:27:34.653 : en:00:27:34.653
00:32:42.502 : en:00:32:42.502
00:37:47.140 : en:00:37:47.140
00:43:51.671 : en:00:43:51.671
00:46:54.186 : en:00:46:54.186
00:51:29.336 : en:00:51:29.336
00:56:46.903 : en:00:56:46.903
01:01:29.686 : en:01:01:29.686
01:05:34.347 : en:01:05:34.347
01:09:09.270 : en:01:09:09.270
01:13:41.250 : en:01:13:41.250
01:20:23.235 : en:01:20:23.235
01:24:53.505 : en:01:24:53.505
01:28:31.765 : en:01:28:31.765
01:31:47.460 : en:01:31:47.460
Свернуть
Знаете ли вы, что...
Рабочие названия фильма — «Детские игры: Проклятие Чаки» и «Детские игры 6».

Главную героиню играет Фиона Дуриф, дочь Брэда Дурифа (голос Чаки).

Свернуть
Скриншоты
Изображение
Изображение
Изображение
Изображение
Свернуть
В сети
Профиль  
 Добавлено: 2013-10-16 18:23 (спустя 1 день 7 часов)
Кинокомментатор
Аватара пользователя
Стаж: 9 лет 1 месяц
Сообщений: 1332
Лайков: 54
стоит решиться и посмотреть то!?)
_________________
Я ВКонтакте
Не в сети
Профиль  
 Добавлено: 2013-10-17 21:28 (спустя 1 день 3 часа)
Кинокомментатор
Аватара пользователя
Стаж: 9 лет 1 месяц
Сообщений: 1332
Лайков: 54
ну не особо страшно на самом деле) довольно предсказуемо!) и не особо интересно) но посмотреть можно конечно... попробуйте) потом расскажете) если выживите,,,))) 6/10
Не в сети
Профиль  
 Добавлено: 2015-01-01 12:52 (спустя 1 год 2 месяца)
Аватара пользователя
Стаж: 5 лет 6 месяцев
Возраст: 23
Сообщений: 484
Спасибок: 1403
Лайков: 1
раздайте
Не в сети
Профиль  
Начать новую темуОтветить на тему  [ Сообщений: 4 ] 
Вы не можете начинать темы
Вы не можете отвечать на сообщения
Вы не можете редактировать свои сообщения
Вы не можете удалять свои сообщения