Правила форума

  • В этом разделе создание новых тем Запрещено.
  • Для создания новых тем пользуйтесь Корневым разделом DVD и HD фильмы.
Начать новую темуОтветить на тему  [ 1 сообщение ] 
Торрент файл
Размер: 8.17 GB • Зарегистрирован: 3 года 5 месяцев • Статус: Проверено
Скачан: 51 раз • Желающих скачать: 0 • Поблагодарили: 12 раз
 Раздают: 0  |  0 KB/s  ]   Качают: 0  |  0 KB/s  ] 
 Полного источника не было 7 месяцев 
Сообщения
 Добавлено: 2013-07-02 14:36
Аватара пользователя
Стаж: 9 лет 1 месяц
Сообщений: 8012
Спасибок: 122244
Лайков: 1193
Проклятие моей матери / The Guilt Trip

«Get ready for one mother of a road trip»

Изображение


Год выпуска: 2012
Страна: Изображение США
Жанр: комедия, драма
Продолжительность: 01:35:37
Субтитры: Английские, румынские
Перевод: Профессиональный (многоголосый, закадровый) [Лицензия]


Режиссер: Энн Флетчер
Сценарий: Дэн Фогельман
Продюсер: Ивэн Голдберг, Джон Голдвин, Лорн Майклз
Оператор: Оливер Степлтон
Композитор: Кристоф Бек

В ролях: Барбра Стрейзанд, Сет Роген, Джулин Рени, Забрина Гевара, Джон Фанк, Роберт Кертис-Браун, Кэти Нэджими, Мириам Маргулис, Роуз Абду, Том Вирту

Описание: Главный герой изобрел новое чистящее средство и просит мать отправиться с ним в рекламную кампанию по стране. Но на самом деле его цель иная — соединить сердца матери и мужчины, в которого она была влюблена в молодости. Мама согласилась по похожей причине — она винит себя в неудачах сына на любовном фронте и берется во время путешествия исправить дело.

Изображение Изображение

Раздача группы: Изображение

Качество: BDRip (1080p)
Формат: Matroska
Видео: MPEG-4 AVC, 10353 Кбит/с, 1920x816
Аудио №1: Русский (AC3, 48,0 КГц, 6 ch, 384 Кбит/c)
Аудио №2: Английский (DTS, 48,0 КГц, 6 ch, 1510 Кбит/c)

MediaInfo
Общее
Уникальный идентификатор : 186419864653346697293416282538560021438 (0x8C3F28F2E7E7D54D8A76C83A7E2563BE)
Полное имя : C:\Фильмы\The.Guilt.Trip.2012.1080p.BluRay.x264.Rus.Eng.Subs.R.G.Daredevil.mkv
Формат : Matroska
Версия формата : Version 2
Размер файла : 8,17 Гбайт
Продолжительность : 1 ч. 35 м.
Общий поток : 12,2 Мбит/сек
Дата кодирования : UTC 2013-06-30 07:42:46
Программа кодирования : mkvmerge v4.9.1 ('Ich will') built on Jul 11 2011 23:53:15
Библиотека кодирования : libebml v1.2.1 + libmatroska v1.1.1

Видео
Идентификатор : 1
Формат : AVC
Формат/Информация : Advanced Video Codec
Профиль формата : High@L4.1
Параметр CABAC формата : Да
Параметр ReFrames формата : 6 кадров
Идентификатор кодека : V_MPEG4/ISO/AVC
Продолжительность : 1 ч. 35 м.
Битрейт : 10,4 Мбит/сек
Ширина : 1920 пикселей
Высота : 816 пикселей
Соотношение сторон : 2,35:1
Режим частоты кадров : Постоянный
Частота кадров : 23,976 кадра/сек
Цветовое пространство : YUV
Субдискретизация насыщенности : 4:2:0
Битовая глубина : 8 бит
Тип развёртки : Прогрессивная
Бит/(Пиксели*Кадры) : 0.276
Размер потока : 6,74 Гбайт (83%)
Заголовок : The.Guilt.Trip.2012.BluRay.1080p.DTS.x264-CHD
Библиотека кодирования : x264 core 130 r2273 b3065e6
Настройки программы : cabac=1 / ref=6 / deblock=1:-3:-3 / analyse=0x3:0x113 / me=umh / subme=10 / psy=1 / psy_rd=1.05:0.10 / mixed_ref=1 / me_range=48 / chroma_me=1 / trellis=2 / 8x8dct=1 / cqm=0 / deadzone=21,11 / fast_pskip=0 / chroma_qp_offset=-2 / threads=12 / lookahead_threads=1 / sliced_threads=0 / nr=0 / decimate=1 / interlaced=0 / bluray_compat=0 / constrained_intra=0 / bframes=6 / b_pyramid=2 / b_adapt=2 / b_bias=0 / direct=3 / weightb=1 / open_gop=0 / weightp=2 / keyint=250 / keyint_min=23 / scenecut=40 / intra_refresh=0 / rc_lookahead=40 / rc=2pass / mbtree=0 / bitrate=10353 / ratetol=2.0 / qcomp=0.70 / qpmin=0 / qpmax=69 / qpstep=4 / cplxblur=20.0 / qblur=0.5 / vbv_maxrate=40000 / vbv_bufsize=30000 / nal_hrd=none / ip_ratio=1.40 / pb_ratio=1.30 / aq=2:1.00
Язык : English
Default : Нет
Forced : Нет

Аудио #1
Идентификатор : 2
Формат : AC-3
Формат/Информация : Audio Coding 3
Расширение режима : CM (complete main)
Параметр Endianness формата : Big
Идентификатор кодека : A_AC3
Продолжительность : 1 ч. 35 м.
Вид битрейта : Постоянный
Битрейт : 384 Кбит/сек
Каналы : 6 каналов
Расположение каналов : Front: L C R, Side: L R, LFE
Частота : 48,0 КГц
Битовая глубина : 16 бит
Метод сжатия : С потерями
Размер потока : 263 Мбайт (3%)
Язык : Russian
Default : Да
Forced : Нет

Аудио #2
Идентификатор : 3
Формат : DTS
Формат/Информация : Digital Theater Systems
Режим : 16
Параметр Endianness формата : Big
Идентификатор кодека : A_DTS
Продолжительность : 1 ч. 35 м.
Вид битрейта : Постоянный
Битрейт : 1509 Кбит/сек
Каналы : 6 каналов
Расположение каналов : Front: L C R, Side: L R, LFE
Частота : 48,0 КГц
Битовая глубина : 24 бит
Метод сжатия : С потерями
Размер потока : 1,01 Гбайт (12%)
Язык : English
Default : Нет
Forced : Нет

Текст #1
Идентификатор : 4
Формат : UTF-8
Идентификатор кодека : S_TEXT/UTF8
Идентификатор кодека/Информация : UTF-8 Plain Text
Заголовок : Romanian
Язык : Romanian
Default : Нет
Forced : Да

Текст #2
Идентификатор : 5
Формат : UTF-8
Идентификатор кодека : S_TEXT/UTF8
Идентификатор кодека/Информация : UTF-8 Plain Text
Язык : English
Default : Да
Forced : Нет

Меню
00:00:00.000 : en:Chapter 1
00:07:42.295 : en:Chapter 2
00:10:35.593 : en:Chapter 3
00:18:20.933 : en:Chapter 4
00:26:03.312 : en:Chapter 5
00:34:55.135 : en:Chapter 6
00:42:56.574 : en:Chapter 7
00:47:22.631 : en:Chapter 8
00:52:52.044 : en:Chapter 9
01:05:48.903 : en:Chapter 10
01:09:15.902 : en:Chapter 11
01:14:31.884 : en:Chapter 12
01:20:56.518 : en:Chapter 13
01:28:23.215 : en:Chapter 14
Свернуть
Знаете ли вы, что...
Отдел маркетинга студии Paramount был так уверен в том, что Барбра Стрейзанд получит «Золотой глобус» за свою роль, что пустил сообщение о ее победе за мгновение до объявления номинации, и его пришлось тут же убрать, потому что Стрейзанд не получила награду.

50-унцевый стейк описывается в диалоге как 4,5-фунтовый стейк. 4,5 фунта — это 72 унции. 50-унцевый стейк — это 3 фунта и 2 унции.

Когда в комнате отеля Джойс выключает лампу, можно заметить, что на самом деле она не касается переключателя, а просто делает движение пальцем, чтобы подать знак для изменения освещения.

Свернуть
Скриншоты
Изображение
Изображение
Изображение
Изображение
Свернуть
В сети
Профиль  
Начать новую темуОтветить на тему  [ 1 сообщение ] 
Вы не можете начинать темы
Вы не можете отвечать на сообщения
Вы не можете редактировать свои сообщения
Вы не можете удалять свои сообщения