Правила форума

  • В этом разделе создание новых тем Запрещено.
  • Для создания новых тем пользуйтесь Корневым разделом DVD и HD фильмы.
Начать новую темуОтветить на тему  [ Сообщений: 4 ] 
Торрент файл
Размер: 3.54 GB • Зарегистрирован: 4 года • Статус: Проверено
Скачан: 37 раз • Желающих скачать: 0 • Поблагодарили: 4 раза
 Раздают: 0  |  0 KB/s  ]   Качают: 0  |  0 KB/s  ] 
 Полного источника не было 4 месяца 3 дня 
Сообщения
 Добавлено: 2012-11-13 02:15
Аватара пользователя
Стаж: 7 лет 4 месяца
Возраст: 21
Сообщений: 419
Спасибок: 12706
Лайков: 18
Изображение
Проклятый камень / Greystone Park

«Do you believe in ghosts?»

Год выпуска: 2012
Страна: США
Жанр: Ужасы
Продолжительность: 01:19:33
Перевод: Профессиональный (многоголосый, закадровый) [Лицензия]

Режиссер: Шон Стоун
Сценарий: Шон Стоун, Александр Рэйт
Продюсер: Джулия Пренна, Кайла Йорк, Дэвид П. Бейчман
Оператор: Эдуардо Энрике Майен

В ролях: Шон Стоун, Александр Рэйт, Антонелла Лентини, Джон Шрамм, Моника Зордан, Моника ван Вурен, Оливер Стоун, Пит Антико, Зана Маркелсон, Корали С. Пол...

Описание: Фильм основан на реально жизненном опыте режиссеров Шона Стоуна и Александра Рэйта. Во время обеда с Оливером Стоуном в октябре 2009 года, когда снимался фильм «Уолл Стрит: Деньги не спят», Шон и Александр решают посетить заброшенную психиатрическую больницу в Нью-Джерси, известную своим радикальным лечением больных с психиатрическими заболеваниями. Оказавшись внутри психушки, они понимают, что они здесь не одни…

Раздача: Изображение


Изображение

Бюджет: $3 100 000
Мировая премьера: 3 мая 2012
Релиз на DVD: 22 ноября 2012, «CP Дистрибуция»
Релиз на Blu-Ray: 22 ноября 2012, «CP Дистрибуция»

Качество: BDRip [720p]
Формат: Matroska
Видео: 1280x720 (16:9), 25.000 fps, H264 ~4142 kbps avg, 0.187 bit/pixel
Аудио:
Аудио 1: Русский: 48 kHz, Dolby AC3, 6 ch, 448.00 kbps Constant
Аудио 2: Английский: 48 kHz, DTS, 6 ch, 1536.00 kbps Constant


MediaInfo
Общее
Полное имя : Proklyatyi.kamen.2012.P.BDRip.720p.mkv
Формат : Matroska
Версия формата : Version 2
Размер файла : 3,54 Гбайт
Продолжительность : 1 ч. 22 м.
Общий поток : 6102 Кбит/сек
Дата кодирования : UTC 2012-11-12 19:01:57
Программа кодирования : mkvmerge v5.8.0 ('No Sleep / Pillow') built on Sep 2 2012 15:37:04
Библиотека кодирования : libebml v1.2.3 + libmatroska v1.3.0

Видео
Идентификатор : 1
Формат : AVC
Формат/Информация : Advanced Video Codec
Профиль формата : High@L4.1
Параметр CABAC формата : Да
Параметр ReFrames формата : 5 кадров
Идентификатор кодека : V_MPEG4/ISO/AVC
Продолжительность : 1 ч. 22 м.
Битрейт : 4142 Кбит/сек
Ширина : 1280 пикселей
Высота : 720 пикселей
Соотношение сторон : 16:9
Частота кадров : 23,976 кадра/сек
Цветовое пространство : YUV
Субдискретизация насыщенности : 4:2:0
Битовая глубина : 8 бит
Тип развёртки : Прогрессивная
Бит/(Пиксели*Кадры) : 0.187
Размер потока : 2,33 Гбайт (66%)
Библиотека кодирования : x264 core 128 r2216 198a7ea
Настройки программы : cabac=1 / ref=5 / deblock=1:0:0 / analyse=0x3:0x133 / me=umh / subme=7 / psy=1 / psy_rd=1.00:0.00 / mixed_ref=1 / me_range=16 / chroma_me=1 / trellis=1 / 8x8dct=1 / cqm=0 / deadzone=21,11 / fast_pskip=0 / chroma_qp_offset=-2 / threads=24 / lookahead_threads=4 / sliced_threads=0 / nr=0 / decimate=1 / interlaced=0 / bluray_compat=0 / constrained_intra=0 / bframes=3 / b_pyramid=2 / b_adapt=1 / b_bias=0 / direct=1 / weightb=1 / open_gop=0 / weightp=2 / keyint=250 / keyint_min=23 / scenecut=40 / intra_refresh=0 / rc_lookahead=40 / rc=2pass / mbtree=1 / bitrate=4142 / ratetol=1.0 / qcomp=0.60 / qpmin=0 / qpmax=69 / qpstep=4 / cplxblur=20.0 / qblur=0.5 / ip_ratio=1.40 / aq=1:1.00
Язык : English
Default : Да
Forced : Нет

Аудио #1
Идентификатор : 2
Формат : AC-3
Формат/Информация : Audio Coding 3
Расширение режима : CM (complete main)
Параметр Endianness формата : Big
Идентификатор кодека : A_AC3
Продолжительность : 1 ч. 22 м.
Вид битрейта : Постоянный
Битрейт : 448 Кбит/сек
Каналы : 6 каналов
Расположение каналов : Front: L C R, Side: L R, LFE
Частота : 48,0 КГц
Битовая глубина : 16 бит
Метод сжатия : С потерями
Размер потока : 266 Мбайт (7%)
Язык : Russian
Default : Да
Forced : Нет

Аудио #2
Идентификатор : 3
Формат : DTS
Формат/Информация : Digital Theater Systems
Идентификатор кодека : A_DTS
Продолжительность : 1 ч. 22 м.
Вид битрейта : Постоянный
Битрейт : 1510 Кбит/сек
Каналы : 6 каналов
Расположение каналов : Front: L C R, Side: L R, LFE
Частота : 48,0 КГц
Битовая глубина : 24 бит
Метод сжатия : С потерями
Размер потока : 896 Мбайт (25%)
Язык : English
Default : Нет
Forced : Нет

Меню
00:00:00.000 : en:00:00:00.000
00:07:28.114 : en:00:07:28.114
00:15:46.445 : en:00:15:46.445
00:21:59.777 : en:00:21:59.777
00:28:41.136 : en:00:28:41.136
00:35:36.885 : en:00:35:36.885
00:42:53.946 : en:00:42:53.946
00:49:01.438 : en:00:49:01.438
00:55:33.247 : en:00:55:33.247
01:04:04.174 : en:01:04:04.174
01:09:53.773 : en:01:09:53.773
01:18:59.652 : en:01:18:59.652
Свернуть


Скриншоты:


Изображение


Изображение


Изображение


Изображение


Свернуть
Не в сети
Профиль  
 Добавлено: 2012-11-13 12:52 (спустя 10 часов)
Аватара пользователя
Стаж: 8 лет 7 месяцев
Возраст: 55
Сообщений: 264
Лайков: 19
Режиссер: Шон Стоун
Сценарий: Шон Стоун
В ролях: Шон Стоун :)
Не в сети
Профиль  
 Добавлено: 2012-11-13 17:09 (спустя 4 часа)
Аватара пользователя
Стаж: 4 года 7 месяцев
Сообщений: 138
как фильм?смотреть можно? :du_ma_et:
Не в сети
Профиль  
 Добавлено: 2012-11-16 10:24 (спустя 2 дня 17 часов)
Аватара пользователя
Стаж: 7 лет 8 месяцев
Возраст: 31
Сообщений: 38
Полная хрень!!!!!!!!! :ne_ne:
Не в сети
Профиль  
Начать новую темуОтветить на тему  [ Сообщений: 4 ] 
Вы не можете начинать темы
Вы не можете отвечать на сообщения
Вы не можете редактировать свои сообщения
Вы не можете удалять свои сообщения