Правила форума

  • В этом разделе создание новых тем Запрещено.
  • Для создания новых тем пользуйтесь Корневым разделом DVD и HD фильмы.
Начать новую темуОтветить на тему  [ Сообщений: 3 ] 
Торрент файл
Размер: 11.56 GB • Зарегистрирован: 5 лет 8 месяцев • Статус: Проверено
Скачан: 34 раза • Желающих скачать: 0 • Поблагодарили: 17 раз
 Раздают: 0  |  0 KB/s  ]   Качают: 0  |  0 KB/s  ] 
 Полного источника не было 2 года 10 месяцев 
Сообщения
 Добавлено: 2011-03-16 15:56
Top-releaser
Аватара пользователя
Стаж: 6 лет 11 месяцев
Возраст: 45
Сообщений: 299
Спасибок: 4106
Лайков: 3
Проклятый путь / Road to Perdition
«The innocence of a son is surpassed only by the father's will to save it.»

Изображение

Год выпуска: 2002
Страна: США
Жанр: триллер, драма, криминал, приключения
Продолжительность: 01:56:58
Перевод: Профессиональный (многоголосый, закадровый), Профессиональный (полное дублирование)

Режиссер: Сэм Мендес / Sam Mendes
Сценарий: Макс Аллан Коллинз / Max Allan Collins, Ричард Пирс Рейнер / Richard Piers Rayner, Дэвид Селф / David Self
Продюсер: Джоан Брэдшоу / Joan Bradshaw, Тара Б. Кук / Tara B. Cook, Черилэнн Мартин / Cherylanne Martin, Сэм Мендес / Sam Mendes, Уолтер Ф. Паркс / Walter F. Parkes
Оператор: Конрад Л. Холл / Conrad L. Hall
Композитор: Томас Ньюман / Thomas Newman, Джон М. Уильямс / John M. Williams, Дж. Фред Кутс / J. Fred Coots, Коулмэн Хоукинс / Coleman Hawkins, Фердинанд ’Джелли Ролл’ Мортон / Ferdinand 'Jelly Roll' Morton

В ролях: Том Хэнкс (Michael Sullivan), Пол Ньюман (John Rooney), Джуд Лоу (Harlen Maguire), Дженнифер Джейсон Ли (Annie Sullivan), Стенли Туччи (Frank Nitti), Дэниэл Крэйг (Connor Rooney), Тайлер Хёхлин (Michael Sullivan Jr.), Лиам Эйкен (Peter Sullivan), Киаран Хайндс (Finn McGovern), Дилан Бейкер (Alexander Rance), Дэвид Дарлоу (Jack Kelly), Даг Спинуцца (Tony Calvino)
Описание: Чикаго времен Великой депрессии. Два сына - Майкл Салливан-младший и Коннор Руни отчаянно стараются завоевать расположение своих отцов - Майкла Салливана-старшего, гангстера из ирландского клана, и Джона Руни, босса Салливана-старшего, заменившего ему отца. Ревность и соперничество толкают их всех на гибельный путь.
Семья Салливана-старшего становится жертвой страшной «профессии» главы семейства. Погибают его любимая жена и младший сын Питер. Месть и трагедия становятся постоянными спутниками Майкла и его оставшегося в живых сына...

Изображение
Бюджет: $80 000 000
Маркетинг: $30 000 000
Сборы в США: $104 454 762
Сборы в мире: $181 001 478
Мировая премьера: 12 июля 2002
Релиз на Blu-ray: 27 мая 2010, «Двадцатый Век Фокс СНГ»
Изображение

MPAA: Изображение - Лицам до 17 лет обязательно присутствие взрослого
Качество: BDRip, 1080p
Формат: Matroska
Видео: AVC; 1920x816 (2.35:1); 11358 Kbps; 23,976 fps; 0,302 bpp
Аудио №1: Russian; AC3; 48 KHz; 384 Kbps; CBR; 6 ch; [Профессиональный (полное дублирование)]
Аудио №2: Russian; AC3; 48 KHz; 384 Kbps; CBR; 6 ch; [Профессиональный (многоголосый, закадровый)]
Аудио №3: English; DTS; 48 KHz; 1509 Kbps; CBR; 6 ch; 24 bit; [Original]
Аудио №4: English; AC3; 48 KHz; 224 Kbps; CBR; 2 ch; [English Commentary]
Субтитры: Russian, Engish

Раздача группы:Изображение

"MediaInfo"

бщее
Уникальный идентификатор : 201094900323934152633936199629172058830 (0x97497811AD89E551B66630E672EB2ACE)
Полное имя : Проклятый путь (Road to Perdition) [2002, BDRip, 1080p].mkv
Формат : Matroska
Размер файла : 11,6 Гбайт
Продолжительность : 1 ч. 56 м.
Общий поток : 14,1 Мбит/сек
Дата кодирования : UTC 2011-03-16 12:15:27
Программа кодирования : mkvmerge v4.4.0 ('Die Wiederkehr') сборка от Oct 31 2010 21:52:48
Библиотека кодирования : libebml v1.0.0 + libmatroska v1.0.0

Видео
Идентификатор : 1
Формат : AVC
Формат/Информация : Advanced Video Codec
Профиль формата : High@L4.1
Параметр CABAC формата : Да
Параметр ReFrames формата : 5 кадры
Режим смешивания : Header stripping
Идентификатор кодека : V_MPEG4/ISO/AVC
Продолжительность : 1 ч. 56 м.
Битрейт : 11,6 Мбит/сек
Ширина : 1920 пикс.
Высота : 816 пикс.
Соотношение сторон : 2,35:1
Частота кадров : 23,976 кадр/сек
Цветовое пространство : YUV
Подвыборка цветности : 4:2:0
Битовая глубина : 8 бит
Тип развёртки : Прогрессивная
Бит/(Пиксели*Кадры) : 0.310
Размер потока : 9,28 Гбайт (80%)
Заголовок : x264_L4.1 @ 11644 Kbps
Библиотека кодирования : x264 core 84 r1400M 20fa784
Настройки программы : cabac=1 / ref=5 / deblock=1:-3:-3 / analyse=0x3:0x113 / me=umh / subme=9 / psy=1 / psy_rd=1.0:0.0 / mixed_ref=1 / me_range=32 / chroma_me=1 / trellis=2 / 8x8dct=1 / cqm=0 / deadzone=21,11 / fast_pskip=0 / chroma_qp_offset=-4 / threads=6 / sliced_threads=0 / nr=0 / decimate=0 / mbaff=0 / constrained_intra=0 / bframes=6 / b_pyramid=2 / b_adapt=2 / b_bias=0 / direct=3 / wpredb=1 / wpredp=2 / keyint=250 / keyint_min=25 / scenecut=40 / intra_refresh=0 / rc_lookahead=45 / rc=2pass / mbtree=1 / bitrate=11644 / ratetol=1.0 / qcomp=0.60 / qpmin=10 / qpmax=51 / qpstep=4 / cplxblur=20.0 / qblur=0.5 / ip_ratio=1.40 / aq=1:1.00 / pulldown=0 / nal_hrd=0
Язык : English

Аудио #1
Идентификатор : 2
Формат : AC-3
Формат/Информация : Audio Coding 3
Расширение режима : CM (complete main)
Режим смешивания : Header stripping
Идентификатор кодека : A_AC3
Продолжительность : 1 ч. 56 м.
Вид битрейта : Постоянный
Битрейт : 384 Кбит/сек
Канал(ы) : 6 канала(ов)
Расположение каналов : Front: L C R, Side: L R, LFE
Частота : 48,0 КГц
Битовая глубина : 16 бит
Метод сжатия : С потерями
Размер потока : 321 Мбайт (3%)
Заголовок : Dub
Язык : Russian

Аудио #2
Идентификатор : 3
Формат : AC-3
Формат/Информация : Audio Coding 3
Расширение режима : CM (complete main)
Режим смешивания : Header stripping
Идентификатор кодека : A_AC3
Продолжительность : 1 ч. 56 м.
Вид битрейта : Постоянный
Битрейт : 384 Кбит/сек
Канал(ы) : 6 канала(ов)
Расположение каналов : Front: L C R, Side: L R, LFE
Частота : 48,0 КГц
Битовая глубина : 16 бит
Метод сжатия : С потерями
Размер потока : 321 Мбайт (3%)
Заголовок : MVO
Язык : Russian

Аудио #3
Идентификатор : 4
Формат : DTS
Формат/Информация : Digital Theater Systems
Режим смешивания : Header stripping
Идентификатор кодека : A_DTS
Продолжительность : 1 ч. 56 м.
Вид битрейта : Постоянный
Битрейт : 1510 Кбит/сек
Канал(ы) : 6 канала(ов)
Расположение каналов : Front: L C R, Side: L R, LFE
Частота : 48,0 КГц
Битовая глубина : 24 бит
Метод сжатия : С потерями
Размер потока : 1,23 Гбайт (11%)
Заголовок : English
Язык : English

Аудио #4
Идентификатор : 5
Формат : AC-3
Формат/Информация : Audio Coding 3
Расширение режима : CM (complete main)
Режим смешивания : Header stripping
Идентификатор кодека : A_AC3
Продолжительность : 1 ч. 56 м.
Вид битрейта : Постоянный
Битрейт : 224 Кбит/сек
Канал(ы) : 2 канала(ов)
Расположение каналов : Front: L R
Частота : 48,0 КГц
Битовая глубина : 16 бит
Метод сжатия : С потерями
Размер потока : 187 Мбайт (2%)
Заголовок : English Commentary
Язык : English

Текст #1
Идентификатор : 6
Формат : UTF-8
Идентификатор кодека : S_TEXT/UTF8
Идентификатор кодека/Информация : UTF-8 Plain Text
Заголовок : Fors
Язык : Russian

Текст #2
Идентификатор : 7
Формат : UTF-8
Идентификатор кодека : S_TEXT/UTF8
Идентификатор кодека/Информация : UTF-8 Plain Text
Заголовок : Russian Kinomaniya
Язык : Russian

Текст #3
Идентификатор : 8
Формат : UTF-8
Идентификатор кодека : S_TEXT/UTF8
Идентификатор кодека/Информация : UTF-8 Plain Text
Заголовок : English SDH
Язык : English
Свернуть
Изображение
"Скриншоты"

Изображение
Изображение
Изображение
Изображение
Изображение
Изображение
Изображение
Свернуть
"Знаете ли Вы, что..."
  • Роль Аль Капоне должен был исполнить Энтони ЛаПалья, сыгравший Фрэнка Нитти, правую руку Капоне, в фильме 1988 года «Фрэнк Нитти: гангстер». Однако создатели картины решили не включать в нее это реальное историческое лицо. При этом в титрах ЛаПалья значится первым в списке людей, которым вынесена «особая благодарность». В «Проклятом пути» Фрэнка Нитти сыграл Стэнли Туччи, а поскольку его персонаж был заядлым курильщиком, актеру приходилось закуривать почти по 80 раз в день.
  • На роль Аль Капоне также претендовали Том Сайзмор и Альфред Молина.
  • По словам Макса Аллана Коллинза, автора графического романа, положенного в основу картины, фамилия настоящих гангстеров Джона и Коннора Луни была изменена в фильме на Руни.
  • В романе нет персонажа, которого в итоге сыграл Джуд Лоу. Магуайра придумал сценарист Дэвид Сэлф.
  • Фортепьянная пьеса, которую Пол Ньюман и Том Хэнкс играют на похоронах, была исполнена самими актерами после длительной подготовки.
  • Тайлер Хёхлин был выбран на роль сына главного героя из 2000 претендентов.
  • Для съемок в сценах ограбления банка Хёхлину нужно было научиться водить машину, чем он с удовольствием занялся. Юный актер быстро освоил эту науку, однако во время съемок его страховал водитель-каскадер.
  • Эта лента стала последней для легендарного оператора Конрада Л. Холла. Посмертно он был удостоен «Оскара» и премии Британской киноакадемии BAFTA.
  • Картина также претендовала еще на пять премий Американской киноакадемии, в том числе за лучшую мужскую роль второго плана (Пол Ньюман) и лучшую музыку (Томас Ньюман).
Свернуть
Не в сети
Профиль  
 Добавлено: 2012-12-23 00:08 (спустя 1 год 9 месяцев)
Стаж: 4 года 1 месяц
Сообщений: 17
раздайте, пожалуйста!
Не в сети
Профиль  
 Добавлено: 2013-10-08 21:43 (спустя 9 месяцев)
Стаж: 4 года 1 месяц
Сообщений: 17
Спасибо! Фильм интересный, очень доволен.
Не в сети
Профиль  
Начать новую темуОтветить на тему  [ Сообщений: 3 ] 
Вы не можете начинать темы
Вы не можете отвечать на сообщения
Вы не можете редактировать свои сообщения
Вы не можете удалять свои сообщения