Правила форума

  • В этом разделе создание новых тем Запрещено.
  • Для создания новых тем пользуйтесь Корневым разделом DVD и HD фильмы.
Начать новую темуОтветить на тему  [ 1 сообщение ] 
Торрент файл
Размер: 9.27 GB • Зарегистрирован: 4 года 5 месяцев • Статус: Проверено
Скачан: 65 раз • Желающих скачать: 0 • Поблагодарили: 17 раз
 Раздают: 0  |  0 KB/s  ]   Качают: 0  |  0 KB/s  ] 
 Полного источника не было 2 года 7 месяцев 
Сообщения
 Добавлено: 2012-06-12 22:15
Модератор
Аватара пользователя
Стаж: 6 лет 10 месяцев
Возраст: 33
Сообщений: 5908
Спасибок: 61265
Лайков: 3540
Изображение

Проповедник с пулеметом / Machine Gun Preacher


Год выпуска: 2011
Страна: США
Слоган: «Hope is the greatest weapon of all»
Жанр: боевик, драма, криминал, биография
Продолжительность: 02:08:43
Перевод: Профессиональный (полное дублирование) Лицензия
Режиссер: Марк Форстер
Сценарий: Джейсон Келлер
Продюсер: Робби Бреннер, Gary Safady, Крэйг Чэпман
Оператор: Роберто Шэфер
Композитор: Эш & Спенсер, Тэд Спенсер
В ролях: Джерард Батлер, Мишель Монахэн, Кэти Бейкер, Майкл Шеннон, Мадлен Кэрролл, Соулеймейн Сай Савейн, Грант Р. Краузе, Ривис Грэхэм, Питер Кэри, Барбара Ковен
Бюджет: $30 000 000
Сборы в США: $538 690
Сборы в мире: $1 104 633
Описание: Байкер Сэм Чайлдерс имел множество проблем с законом, но после выхода из тюрьмы, вняв мольбам жены Линн, начал посещать церковь. Бывшего преступника словно подменили: он стал примерным прихожанином, основал строительную компанию и сам возвел с нуля протестантский храм для тех, кого благополучные американцы презрительно именовали «отбросами общества» Ровное течение жизни Сэма меняется после миссионерской поездки в Уганду и Судан.
Проникнувшись состраданием к африканским детям, он решает основать приют, в котором те чувствовали бы себя в безопасности от боевиков Господней армии Сопротивления, набирающих себе солдат и сексуальных рабынь даже среди малолетних. Своих подопечных, если потребуется, Сэм готов защищать с оружием в руках. Однако в своем рвении Чайлдерс забывает о том, что обратной стороной любого благого порыва может стать одержимость.

Изображение
MPAA: Изображение
Мировая премьера: 11 сентября 2011
Релиз на DVD: 14 июня 2012, «Вольга»
Релиз на Blu-ray: 14 июня 2012, «Вольга»
Раздача группы: Изображение
Качество: BDRip, 720p
Формат: Matroska
Видео: AVC; 1280x534 (2.35:1); 7088 Kbps; 24 fps; 0,432 bit/pixel
Аудио: Russian; English; DTS; 1509 Kbps; CBR; 6 ch; 16 bit
Субтитры №1: Russian
Субтитры №2: Russian
Субтитры №3: English


"Знаете ли Вы, что..."
  • Фильм основан на реальных событиях.
Свернуть
MediaInfo
General
Unique ID : 210383230947609844896536875899572335882 (0x9E4656202371001F90790D12D0FA350A)
Complete name : Propovednik.s.pulemetom.2011.D.BDRip.720p.mkv
Format : Matroska
File size : 9.27 GiB
Duration : 2h 8mn
Overall bit rate : 10.3 Mbps
Movie name : IRONCLUB
Encoded date : UTC 2012-06-12 11:59:02
Writing application : mkvmerge v4.9.1 ('Ich will') built on Jul 11 2011 23:53:15
Writing library : libebml v1.2.1 + libmatroska v1.1.1
Video #1
ID : 1
Format : AVC
Format/Info : Advanced Video Codec
Format profile : High@L4.1
Format settings, CABAC : Yes
Format settings, ReFrames : 9 frames
Codec ID : V_MPEG4/ISO/AVC
Duration : 2h 8mn
Bit rate : 7 088 Kbps
Width : 1 280 pixels
Height : 534 pixels
Display aspect ratio : 2.40:1
Frame rate : 24.000 fps
Color space : YUV
Chroma subsampling : 4:2:0
Bit depth : 8 bits
Scan type : Progressive
Bits/(Pixel*Frame) : 0.432
Stream size : 6.37 GiB (69%)
Title : Machine.Gun.Preacher.2011.720p.Bluray.DTS.x264-ESiR
Writing library : x264 core 120 r2164 da19765
Language : English
Audio #2
ID : 2
Format : DTS
Format/Info : Digital Theater Systems
Codec ID : A_DTS
Duration : 2h 8mn
Bit rate mode : Constant
Bit rate : 1 510 Kbps
Channel(s) : 6 channels
Channel positions : Front: L C R, Side: L R, LFE
Sampling rate : 48.0 KHz
Bit depth : 16 bits
Compression mode : Lossy
Stream size : 1.36 GiB (15%)
Title : DTS 5.1 @ 1536 kbps - Dub, BD RUS
Language : Russian
Audio #3
ID : 3
Format : DTS
Format/Info : Digital Theater Systems
Codec ID : A_DTS
Duration : 2h 8mn
Bit rate mode : Constant
Bit rate : 1 510 Kbps
Channel(s) : 6 channels
Channel positions : Front: L C R, Side: L R, LFE
Sampling rate : 48.0 KHz
Bit depth : 24 bits
Compression mode : Lossy
Stream size : 1.36 GiB (15%)
Title : DTS 5.1 @ 1536 kbps
Language : English
Text #4
ID : 4
Format : UTF-8
Codec ID : S_TEXT/UTF8
Codec ID/Info : UTF-8 Plain Text
Language : Russian
Text #5
ID : 5
Format : UTF-8
Codec ID : S_TEXT/UTF8
Codec ID/Info : UTF-8 Plain Text
Title : SDH
Language : Russian
Text #6
ID : 6
Format : ASS
Codec ID : S_TEXT/ASS
Codec ID/Info : Advanced Sub Station Alpha
Compression mode : Lossless
Language : English

Свернуть

Скриншоты

Изображение
Изображение
Изображение
Изображение
Изображение
Свернуть
_________________
ИзображениеИзображение Изображение
Изображение
 tany1984 и di-ys1 нравится это.
Не в сети
Профиль  
Начать новую темуОтветить на тему  [ 1 сообщение ] 
Вы не можете начинать темы
Вы не можете отвечать на сообщения
Вы не можете редактировать свои сообщения
Вы не можете удалять свои сообщения