Правила форума

  • В этом разделе создание новых тем Запрещено.
  • Для создания новых тем пользуйтесь Корневым разделом DVD и HD фильмы.
Начать новую темуОтветить на тему  [ Сообщений: 2 ] 
Торрент файл
Размер: 18.34 GB • Зарегистрирован: 4 года 5 месяцев • Статус: Проверено
Скачан: 77 раз • Желающих скачать: 0 • Поблагодарили: 18 раз
 Раздают: 0  |  0 KB/s  ]   Качают: 0  |  0 KB/s  ] 
 Полного источника не было 1 год 10 месяцев 
Сообщения
 Добавлено: 2012-06-13 12:52
Модератор
Аватара пользователя
Стаж: 6 лет 10 месяцев
Возраст: 33
Сообщений: 5908
Спасибок: 61239
Лайков: 3540
Изображение

Проповедник с пулеметом / Machine Gun Preacher


Год выпуска: 2011
Страна: США
Слоган: «Hope is the greatest weapon of all»
Жанр: боевик, драма, криминал, биография
Продолжительность: 02:08:43
Перевод: Профессиональный (полное дублирование) Лицензия
Режиссер: Марк Форстер
Сценарий: Джейсон Келлер
Продюсер: Робби Бреннер, Gary Safady, Крэйг Чэпман
Оператор: Роберто Шэфер
Композитор: Эш & Спенсер, Тэд Спенсер
В ролях: Джерард Батлер, Мишель Монахэн, Кэти Бейкер, Майкл Шеннон, Мадлен Кэрролл, Соулеймейн Сай Савейн, Грант Р. Краузе, Ривис Грэхэм, Питер Кэри, Барбара Ковен
Бюджет: $30 000 000
Сборы в США: $538 690
Сборы в мире: $1 104 633
Описание: Байкер Сэм Чайлдерс имел множество проблем с законом, но после выхода из тюрьмы, вняв мольбам жены Линн, начал посещать церковь. Бывшего преступника словно подменили: он стал примерным прихожанином, основал строительную компанию и сам возвел с нуля протестантский храм для тех, кого благополучные американцы презрительно именовали «отбросами общества». Ровное течение жизни Сэма меняется после миссионерской поездки в Уганду и Судан.
Проникнувшись состраданием к африканским детям, он решает основать приют, в котором те чувствовали бы себя в безопасности от боевиков Господней армии Сопротивления, набирающих себе солдат и сексуальных рабынь даже среди малолетних. Своих подопечных, если потребуется, Сэм готов защищать с оружием в руках. Однако в своем рвении Чайлдерс забывает о том, что обратной стороной любого благого порыва может стать одержимость.

Изображение
MPAA: Изображение
Мировая премьера: 11 сентября 2011
Релиз на DVD: 14 июня 2012, «Вольга»
Релиз на Blu-ray: 14 июня 2012, «Вольга»
Раздача группы:Изображение
Качество: BDRip, 1080p
Формат: Matroska
Видео: AVC; 1920x800 (2.40:1); 16976 Kbps; 24 fps; 0,461 bit/pixel
Аудио №1: Russian; DTS; 1509 Kbps; CBR; 6 ch; 16 bit
Аудио №2: DTS; 1509 Kbps; CBR; 6 ch; 24 bit
Оригинал
Субтитры №1: Russian
Субтитры №2: Russian
Субтитры №3:

"Знаете ли Вы, что..."
  • Фильм основан на реальных событиях.
Свернуть
MediaInfo
Полное имя : Machine.Gun.Preacher.2011.D.BDRip.1080p..mkv
Формат : Matroska
Версия формата : Version 2
Размер файла : 18,3 Гбайт
Продолжительность : 2 ч. 8 м.
Общий поток : 20,4 Мбит/сек
Название фильма : Проповедник с пулеметом / Machine Gun Preacher (2011)[JTR]
Дата кодирования : UTC 2012-06-12 12:58:27
Программа кодирования : mkvmerge v5.6.0 ('Kenya Kane') built on May 27 2012 16:44:04
Библиотека кодирования : libebml v1.2.3 + libmatroska v1.3.0

Видео
Идентификатор : 1
Формат : AVC
Формат/Информация : Advanced Video Codec
Профиль формата : High@L4.1
Параметр CABAC формата : Да
Параметр ReFrames формата : 5 кадров
Идентификатор кодека : V_MPEG4/ISO/AVC
Продолжительность : 2 ч. 8 м.
Битрейт : 17,4 Мбит/сек
Ширина : 1920 пикселей
Высота : 800 пикселей
Соотношение сторон : 2,40:1
Частота кадров : 24,000 кадра/сек
Цветовое пространство : YUV
Субдискретизация насыщенности : 4:2:0
Битовая глубина : 8 бит
Тип развёртки : Прогрессивная
Бит/(Пиксели*Кадры) : 0.472
Размер потока : 15,3 Гбайт (83%)
Заголовок : Machine.Gun.Preacher.2011.1080p.BluRay.x264.DTS-WiKi
Библиотека кодирования : x264 core 120 r2120 0c7dab9
Настройки программы : cabac=1 / ref=5 / deblock=1:-3:-3 / analyse=0x3:0x133 / me=umh / subme=10 / psy=1 / psy_rd=1.10:0.15 / mixed_ref=1 / me_range=64 / chroma_me=1 / trellis=2 / 8x8dct=1 / cqm=0 / deadzone=21,11 / fast_pskip=0 / chroma_qp_offset=-3 / threads=12 / sliced_threads=0 / nr=0 / decimate=1 / interlaced=0 / bluray_compat=0 / constrained_intra=0 / bframes=8 / b_pyramid=2 / b_adapt=2 / b_bias=0 / direct=3 / weightb=1 / open_gop=0 / weightp=2 / keyint=250 / keyint_min=24 / scenecut=40 / intra_refresh=0 / rc_lookahead=250 / rc=2pass / mbtree=1 / bitrate=17391 / ratetol=1.0 / qcomp=0.60 / qpmin=0 / qpmax=69 / qpstep=4 / cplxblur=20.0 / qblur=0.5 / ip_ratio=1.40 / aq=1:0.85
Язык : English
Default : Да
Forced : Да

Аудио #1
Идентификатор : 2
Формат : DTS
Формат/Информация : Digital Theater Systems
Идентификатор кодека : A_DTS
Продолжительность : 2 ч. 8 м.
Вид битрейта : Постоянный
Битрейт : 1510 Кбит/сек
Каналы : 6 каналов
Расположение каналов : Front: L C R, Side: L R, LFE
Частота : 48,0 КГц
Битовая глубина : 16 бит
Метод сжатия : С потерями
Размер потока : 1,36 Гбайт (7%)
Заголовок : DTS 5.1 @ 1510 kb/s [Russian DUB, Blu-ray]
Язык : Russian
Default : Да
Forced : Да

Аудио #2
Идентификатор : 3
Формат : DTS
Формат/Информация : Digital Theater Systems
Идентификатор кодека : A_DTS
Продолжительность : 2 ч. 8 м.
Вид битрейта : Постоянный
Битрейт : 1510 Кбит/сек
Каналы : 6 каналов
Расположение каналов : Front: L C R, Side: L R, LFE
Частота : 48,0 КГц
Битовая глубина : 24 бит
Метод сжатия : С потерями
Размер потока : 1,36 Гбайт (7%)
Заголовок : DTS 5.1 @ 1510 kb/s [English]
Язык : English
Default : Нет
Forced : Нет

Текст #1
Идентификатор : 4
Формат : UTF-8
Идентификатор кодека : S_TEXT/UTF8
Идентификатор кодека/Информация : UTF-8 Plain Text
Заголовок : Russian [Full, voronine]
Язык : Russian
Default : Нет
Forced : Нет

Текст #2
Идентификатор : 5
Формат : UTF-8
Идентификатор кодека : S_TEXT/UTF8
Идентификатор кодека/Информация : UTF-8 Plain Text
Заголовок : Russian [SDH, voronine]
Язык : Russian
Default : Нет
Forced : Нет

Текст #3
Идентификатор : 6
Формат : UTF-8
Идентификатор кодека : S_TEXT/UTF8
Идентификатор кодека/Информация : UTF-8 Plain Text
Заголовок : English [SDH]
Язык : English
Default : Нет
Forced : Нет

Меню
00:00:00.000 : en:Chapter 01
00:08:50.791 : en:Chapter 02
00:16:54.666 : en:Chapter 03
00:25:17.333 : en:Chapter 04
00:32:27.166 : en:Chapter 05
00:39:44.708 : en:Chapter 06
00:48:33.041 : en:Chapter 07
00:56:52.083 : en:Chapter 08
01:04:27.958 : en:Chapter 09
01:11:36.958 : en:Chapter 10
01:20:10.041 : en:Chapter 11
01:29:11.125 : en:Chapter 12
01:36:51.916 : en:Chapter 13
01:43:40.666 : en:Chapter 14
01:52:32.583 : en:Chapter 15
02:02:50.166 : en:Chapter 16

Свернуть

Скриншоты

Изображение
Изображение
Изображение
Изображение
Свернуть
_________________
ИзображениеИзображение Изображение
Изображение
 tany1984 и di-ys1 нравится это.
Не в сети
Профиль  
 Добавлено: 2012-06-13 21:10 (спустя 8 часов)
Модератор
Аватара пользователя
Стаж: 8 лет 7 месяцев
Сообщений: 4965
Спасибок: 110253
Лайков: 18
Помогаю :)
_________________
Изображение Изображение Изображение
Билайн / АДС добавляйте ретрекер, чтобы качать на скорости 100 Мбит/с
Cкрытый текст
Изображение
Свернуть
Не в сети
Профиль  
Начать новую темуОтветить на тему  [ Сообщений: 2 ] 
Вы не можете начинать темы
Вы не можете отвечать на сообщения
Вы не можете редактировать свои сообщения
Вы не можете удалять свои сообщения