Правила форума

  • В этом разделе создание новых тем Запрещено.
  • Для создания новых тем пользуйтесь Корневым разделом DVD и HD фильмы.
Начать новую темуОтветить на тему  [ 1 сообщение ] 
Торрент файл
Размер: 6.8 GB • Зарегистрирован: 5 лет 8 месяцев • Статус: Проверено
Скачан: 18 раз • Желающих скачать: 0 • Поблагодарили: 4 раза
 Раздают: 0  |  0 KB/s  ]   Качают: 0  |  0 KB/s  ] 
 Полного источника не было 3 года 2 месяца 
Сообщения
 Добавлено: 2011-03-24 19:54
Модератор
Аватара пользователя
Стаж: 8 лет 1 месяц
Возраст: 20
Сообщений: 32130
Спасибок: 98563
Лайков: 80
Прошлой ночью в Нью-Йорке / Last Night
«Куда приводят желания»

Изображение
Год выпуска: 2009
Страна: Изображение США, Изображение Франция
Жанр: мелодрама
Продолжительность: 01:32:30
Перевод: Оригинальный, Профессиональный (полное дублирование) [лицензия]

Режиссер: Мэсси Таджедин / Massy Tadjedin
В ролях: Кира Найтли, Наталья Фищук, Сэм Уортингтон, Илья Хвостиков, Ева Мендес, Татьяна Шитова, Гийом Кане, Иван Жарков, Энсон Маунт, Дмитрий Курта, Скотт Эдсит, Гриффин Данн, Игорь Тарадайкин, Стефани Романов, Дэниэл Эрик Голд, Джастин Котсонас, Стефен Мэйлер, Rae Ritke, Chriselle Almeida, Зэк Пул, Джон Норман Шнайдер, Уильям Клементе, Стив Антонуччи, Дэвид Бостон, Элизанджела, Джон Триси Иган, Shevy Berkovits Gutierrez, Саманта Хан, Cheryl Ann Leaser, Лукас Папас, Карен Питтман, Энни Ролинг, Лана Тейлор
Описание: Молодожены Майкл и Джоанна - красивы, успешны, живут в огромной квартире центра Манхеттена, но всего одна ночь заставит их усомниться друг в друге...
За день до нее на вечеринке Джоанне всего на мгновение покажется, что Майкл неравнодушен к симпатичной Лауре, своей новой сотруднице, с которой ему предстоит отправиться в командировку... И когда на следующее утро неподалеку от дома Джоанна встретит своего бывшего возлюбленного, французского драматурга Алекса, она примет его предложение поужинать, не задумываясь...
Так начнется долгая ночь, которая станет для Джоанны и Майкла настоящим испытанием в супружеской верности...

Релиз: Изображение Раздача: Изображение

Изображение
Изображение
Доп. информация
Бюджет: $7 000 000
Сборы в мире: $7 500 000
Сборы в России: $1 916 510
Мировая премьера: 18 сентября 2010
Изображение Релиз на DVD: 17 февраля 2011, «Монолит»
Изображение Релиз на Blu-ray: 22 марта 2011, «Монолит»
MediaInfo
Полное имя : Last.Night.2010.D.BDRip.1080p.[uniongang.tv].mkv
Формат : Matroska
Размер файла : 6,80 Гбайт
Продолжительность : 1 ч. 32 м.
Общий поток : 10,5 Мбит/сек
Название фильма : Прошлой ночью в Нью-Йорке / Last Night (2010) .....:::UNIONGANG:::.....
Дата кодирования : UTC 2011-03-24 13:24:45
Программа кодирования : mkvmerge v4.6.0 ('Still Crazy After All These Years') сборка от Mar 10 2011 02:50:32
Библиотека кодирования : libebml v1.2.0 + libmatroska v1.1.0
Видео
Идентификатор : 1
Формат : AVC
Формат/Информация : Advanced Video Codec
Профиль формата : High@L4.1
Параметр CABAC формата : Да
Параметр ReFrames формата : 5 кадры
Параметры GOP формата : M=1, N=2
Идентификатор кодека : V_MPEG4/ISO/AVC
Продолжительность : 1 ч. 32 м.
Битрейт : 8643 Кбит/сек
Ширина : 1920 пикс.
Высота : 816 пикс.
Соотношение сторон : 2,35:1
Частота кадров : 23,976 кадр/сек
Цветовое пространство : YUV
Подвыборка цветности : 4:2:0
Битовая глубина : 8 бит
Тип развёртки : Прогрессивная
Бит/(Пиксели*Кадры) : 0.230
Размер потока : 5,44 Гбайт (80%)
Заголовок : Last.Night.2010.D.BDRip.1080p.[uniongang.tv]
Библиотека кодирования : x264 core 114 r1913 5fd3dce
Настройки программы : cabac=1 / ref=5 / deblock=1:-2:-2 / analyse=0x3:0x113 / me=umh / subme=8 / psy=1 / psy_rd=1.00:0.15 / mixed_ref=1 / me_range=24 / chroma_me=1 / trellis=2 / 8x8dct=1 / cqm=0 / deadzone=21,11 / fast_pskip=1 / chroma_qp_offset=-3 / threads=12 / sliced_threads=0 / nr=0 / decimate=1 / interlaced=0 / constrained_intra=0 / bframes=3 / b_pyramid=2 / b_adapt=2 / b_bias=0 / direct=3 / weightb=1 / open_gop=0 / weightp=2 / keyint=250 / keyint_min=23 / scenecut=40 / intra_refresh=0 / rc_lookahead=50 / rc=2pass / mbtree=1 / bitrate=8643 / ratetol=1.0 / qcomp=0.60 / qpmin=0 / qpmax=69 / qpstep=4 / cplxblur=20.0 / qblur=0.5 / vbv_maxrate=50000 / vbv_bufsize=50000 / nal_hrd=none / ip_ratio=1.40 / aq=1:1.00
Язык : English
Аудио #1
Идентификатор : 2
Формат : AC-3
Формат/Информация : Audio Coding 3
Расширение режима : CM (complete main)
Идентификатор кодека : A_AC3
Продолжительность : 1 ч. 32 м.
Вид битрейта : Постоянный
Битрейт : 384 Кбит/сек
Канал(ы) : 6 канала(ов)
Расположение каналов : Front: L C R, Side: L R, LFE
Частота : 48,0 КГц
Битовая глубина : 16 бит
Метод сжатия : С потерями
Задержка видео : 20 с.
Размер потока : 254 Мбайт (4%)
Заголовок : AC3 5.1 @ 384 kb/s [Russian DUB R5]
Язык : Russian
Аудио #2
Идентификатор : 3
Формат : DTS
Формат/Информация : Digital Theater Systems
Идентификатор кодека : A_DTS
Продолжительность : 1 ч. 32 м.
Вид битрейта : Постоянный
Битрейт : 1510 Кбит/сек
Канал(ы) : 6 канала(ов)
Расположение каналов : Front: L C R, Side: L R, LFE
Частота : 48,0 КГц
Битовая глубина : 24 бит
Метод сжатия : С потерями
Задержка видео : 11 мс.
Размер потока : 999 Мбайт (14%)
Заголовок : DTS 5.1 @ 1510 kb/s [English]
Язык : English
Меню
00:00:00.000 : en:00:00:00.000
00:04:49.164 : en:00:04:49.164
00:07:56.893 : en:00:07:56.893
00:13:07.161 : en:00:13:07.161
00:18:20.808 : en:00:18:20.808
00:22:42.361 : en:00:22:42.361
00:26:33.759 : en:00:26:33.759
00:31:52.035 : en:00:31:52.035
00:35:37.844 : en:00:35:37.844
00:40:46.110 : en:00:40:46.110
00:45:08.289 : en:00:45:08.289
00:47:59.919 : en:00:47:59.919
00:54:55.334 : en:00:54:55.334
00:59:59.012 : en:00:59:59.012
01:02:14.481 : en:01:02:14.481
01:07:25.541 : en:01:07:25.541
01:15:01.539 : en:01:15:01.539
01:24:17.678 : en:01:24:17.678
Свернуть
Свернуть

MPAA: Изображение
Качество: BDRip 1080p R5
Формат: Matroska
Видео: 1920x816, 8643 kb/s, 23,976 кадр/сек
Аудио #1: Russian: AC3, 48 КГц, 384 kb/s, 6 ch
Аудио #2: English: DTS, 48 КГц, 1510 kb/s, 6 ch
Знаете ли Вы, что...
  • На роль Джоанны претендовала Джессика Бил.
  • Четырех главных героев играют актеры разных национальностей. Кира Найтли - англичанка, Сэм Уортингтон - австралиец, Ева Мендес - американка, Гийом Кане - француз.
Свернуть
Скриншоты
Изображение
Изображение
Изображение
Свернуть
Не в сети
Профиль  
Начать новую темуОтветить на тему  [ 1 сообщение ] 
Вы не можете начинать темы
Вы не можете отвечать на сообщения
Вы не можете редактировать свои сообщения
Вы не можете удалять свои сообщения