Правила форума

  • В этом разделе создание новых тем Запрещено.
  • Для создания новых тем пользуйтесь Корневым разделом DVD и HD фильмы.
Начать новую темуОтветить на тему  [ 1 сообщение ] 
Торрент файл
Размер: 11 GB • Зарегистрирован: 1 год 6 месяцев • Статус: Проверено
Скачан: 33 раза • Желающих скачать: 0 • Поблагодарили: 8 раз
 Раздают: 0  |  0 KB/s  ]   Качают: 0  |  0 KB/s  ] 
 Полного источника не было 3 месяца 20 дней 
Сообщения
 Добавлено: 2015-05-29 10:17
Аватара пользователя
Стаж: 1 год 7 месяцев
Возраст: 35
Сообщений: 16
Спасибок: 218
Простушка / The DUFF

Изображение


Год выпуска: 2015
Страна: США (CBS Films, Vast Entertainment, Wonderland Sound and Vision)
Жанр: комедия, мелодрама
Продолжительность: 01:41:15
Перевод: Профессиональный (дубляж) iTunes Russia
Субтитры: Английские (вшитые),отключаемые

Режиссёр: Эри Сандел
Продюсер: Сьюзан Картсонис, МакДжи, Мэри Виола
В ролях: Мэй Уитман, Робби Амелл, Белла Торн, Бьянка А. Сантос, Скайлер Сэмюэлс, Романи Малко, Ник Эверсман, Крис Уайлд, Кен Жонг, Эллисон Дженни
Описание: Качок, ботан, рокер, стерва — в каждой компании есть персонажи с такими кличками. Бьянка Пайпер не подозревает, как ее зовут за ее спиной. Подружки списывают у нее физику и берут ее с собой на тусовки, чтобы круче смотреться на ее фоне. Школьный плейбой Уэсли Раш открывает ей глаза на правду… Как Бьянке избавиться от позорного статуса, стать неотразимой и завоевать сердце первого красавца?..
Рейтинг MPAA: Рейтинг PG-13 (Дети до 13 лет допускаются на фильм только с родителями)
Мировая премьера: 12 февраля 2015
Премьера в России: 26 февраля 2015, «Парадиз»

Качество: BDRip (1080p)
Формат: MKV
Видео кодек: H264 (AVC)
Аудио кодек: AC3 (Dolby Digital)
Видео: MPEG-4 AVC/H.264, 1920x800 (2,40:1), 13 400 kbps, 23.976 fps, 0.363 b/px
Аудио #1: АС3, 6 ch, 384 kbps, 48 000 Hz - дублированный - iTunes Russia [Профессиональный (дубляж)]
Аудио #2: DTS, 6 ch, 1509 kbps, 48 000 Hz - оригинальный
Субтитры: Английские (вшитые),отключаемые
ИзображениеИзображениеИзображение
MediaInfo
Общее
Уникальный идентификатор : 249656182517162432620427713970441556958 (0xBBD2082226F4E64FAA9812B207D413DE)
Полное имя : F:\The.Duff.2015.1080p.BluRay.DTS.x264-HDAccess.mkv
Формат : Matroska
Версия формата : Version 2
Размер файла : 11,0 Гбайт
Продолжительность : 1 ч. 41 м.
Общий поток : 15,6 Мбит/сек
Название фильма : The DUFF (2015)
Дата кодирования : UTC 2015-05-27 17:05:12
Программа кодирования : mkvmerge v7.9.0 ('Birds') 64bit
Библиотека кодирования : libebml v1.3.1 + libmatroska v1.4.2

Видео
Идентификатор : 1
Формат : AVC
Формат/Информация : Advanced Video Codec
Профиль формата : High@L4.1
Параметр CABAC формата : Да
Параметр ReFrames формата : 5 кадров
Идентификатор кодека : V_MPEG4/ISO/AVC
Продолжительность : 1 ч. 41 м.
Битрейт : 13,4 Мбит/сек
Ширина : 1920 пикселей
Высота : 800 пикселей
Соотношение сторон : 2,40:1
Режим частоты кадров : Постоянный
Частота кадров : 23,976 кадра/сек
Цветовое пространство : YUV
Субдискретизация насыщенности : 4:2:0
Битовая глубина : 8 бит
Тип развёртки : Прогрессивная
Бит/(Пиксели*Кадры) : 0.363
Размер потока : 9,44 Гбайт (86%)
Библиотека кодирования : x264 core 146 r2538 121396c
Настройки программы : cabac=1 / ref=5 / deblock=1:-3:-3 / analyse=0x3:0x133 / me=umh / subme=10 / psy=1 / psy_rd=0.98:0.00 / mixed_ref=1 / me_range=48 / chroma_me=1 / trellis=2 / 8x8dct=1 / cqm=0 / deadzone=21,11 / fast_pskip=1 / chroma_qp_offset=-2 / threads=16 / lookahead_threads=2 / sliced_threads=0 / nr=0 / decimate=1 / interlaced=0 / bluray_compat=0 / constrained_intra=0 / bframes=8 / b_pyramid=2 / b_adapt=2 / b_bias=0 / direct=3 / weightb=1 / open_gop=0 / weightp=2 / keyint=250 / keyint_min=23 / scenecut=40 / intra_refresh=0 / rc_lookahead=150 / rc=crf / mbtree=0 / crf=17.2 / qcomp=0.65 / qpmin=0 / qpmax=69 / qpstep=4 / vbv_maxrate=50000 / vbv_bufsize=62500 / crf_max=0.0 / nal_hrd=none / filler=0 / ip_ratio=1.30 / pb_ratio=1.30 / aq=3:0.78
Язык : English
Default : Да
Forced : Нет

Аудио #1
Идентификатор : 2
Формат : AC-3
Формат/Информация : Audio Coding 3
Расширение режима : CM (complete main)
Параметр Endianness формата : Big
Идентификатор кодека : A_AC3
Продолжительность : 1 ч. 41 м.
Вид битрейта : Постоянный
Битрейт : 384 Кбит/сек
Каналы : 6 каналов
Расположение каналов : Front: L C R, Side: L R, LFE
Частота : 48,0 КГц
Метод сжатия : С потерями
Размер потока : 278 Мбайт (2%)
Заголовок : DUB iTunes
Язык : Russian
Default : Да
Forced : Нет

Аудио #2
Идентификатор : 3
Формат : DTS
Формат/Информация : Digital Theater Systems
Режим : 16
Параметр Endianness формата : Big
Идентификатор кодека : A_DTS
Продолжительность : 1 ч. 41 м.
Вид битрейта : Постоянный
Битрейт : 1509 Кбит/сек
Каналы : 6 каналов
Расположение каналов : Front: L C R, Side: L R, LFE
Частота : 48,0 КГц
Битовая глубина : 24 бит
Метод сжатия : С потерями
Размер потока : 1,07 Гбайт (10%)
Язык : English
Default : Нет
Forced : Нет

Текст
Идентификатор : 4
Формат : UTF-8
Идентификатор кодека : S_TEXT/UTF8
Идентификатор кодека/Информация : UTF-8 Plain Text
Язык : English
Default : Нет
Forced : Нет

Меню
00:00:00.000 : en:00:00:00.000
00:09:37.202 : en:00:09:37.202
00:16:43.419 : en:00:16:43.419
00:24:48.028 : en:00:24:48.028
00:29:24.805 : en:00:29:24.805
00:40:37.310 : en:00:40:37.310
00:47:31.348 : en:00:47:31.348
00:55:25.697 : en:00:55:25.697
00:59:11.465 : en:00:59:11.465
01:04:35.330 : en:01:04:35.330
01:09:38.383 : en:01:09:38.383
01:17:59.800 : en:01:17:59.800
01:21:23.337 : en:01:21:23.337
01:25:32.377 : en:01:25:32.377
01:33:08.541 : en:01:33:08.541
01:35:31.809 : en:01:35:31.809
Свернуть
Скриншоты
Изображение
Изображение
Изображение
Изображение
Свернуть

Знаете ли Вы, что...
Знаете ли вы, что...
Фильм снят по книге Коди Кеплингер «Простушка».
Персонажа Беллы Торн не было в книге, он был создан специально для фильма.
Свернуть

Изображение


Изображение
Не в сети
Профиль  
Начать новую темуОтветить на тему  [ 1 сообщение ] 
Вы не можете начинать темы
Вы не можете отвечать на сообщения
Вы не можете редактировать свои сообщения
Вы не можете удалять свои сообщения