Правила форума

  • В этом разделе создание новых тем Запрещено.
  • Для создания новых тем пользуйтесь Корневым разделом DVD и HD фильмы.
Начать новую темуОтветить на тему  [ Сообщений: 4 ] 
Торрент файл
Размер: 11.74 GB • Зарегистрирован: 4 года 11 месяцев • Статус: Проверено
Скачан: 54 раза • Желающих скачать: 0 • Поблагодарили: 20 раз
 Раздают: 0  |  0 KB/s  ]   Качают: 0  |  0 KB/s  ] 
 Полного источника не было 3 года 2 месяца 
Сообщения
 Добавлено: 2011-12-21 12:25
Модератор релиз-группы
Аватара пользователя
Стаж: 9 лет 1 месяц
Возраст: 97
Сообщений: 11659
Спасибок: 6532
Лайков: 269
Противостояние / The One

«In order to save the universe, he will have to fight the fiercest enemy he has ever faced...himself.»

Изображение

Год выпуска: 2001
Страна: США
Жанр: Фантастика, боевик, триллер
Продолжительность: 01:27:18
Перевод: Профессиональный (многоголосый, закадровый)
Субтитры: Русские (2 вида), английские

Режиссер: Джеймс Вонг

В ролях: Джет Ли, Карла Гуджино, Джейсон Стэтхэм, Делрой Линдо, Марк Бочард

Описание: Что делать, если твой мир рушится, когда в него вторгается безжалостный пришелец из параллельных миров? Стремясь стать сверхчеловеком, агент Межпространственного Бюро Расследований Габриель Юло совершает головокружительное сафари по параллельным мирам, охотясь за своими двойниками. Силы его растут с каждой новой жертвой, их жизненная энергия аккумулируется в нём, наделяя его невероятными способностями. Никто не знает, что случится с хрупким равновесием вселенных, если Габриель достигнет своей цели - уничтожить всех двойников. Его мечта уже почти становится реальностью, когда на пути Юло становится Гэйб - полицейский из Лос-Анджелеса...
Изображение
Качество: BDRip
Формат: MKV
Видео кодек: H.264
Аудио кодек: DTS
Видео: 1920x800 (2.35:1), 23.98fps, x264, 2pass, L4.1, 15000 Kbps
Аудио 1: Русский: 48 kHz, DTS, 3/2 (L,C,R,l,r) + LFE ch, ~768 kbps [Многоголосый]
Аудио 2: Русский: 48 kHz, DTS, 3/2 (L,C,R,l,r) + LFE ch, ~1536 kbps [Петр Гланц и Татьяна Казакова]
Аудио 3: Русский: 48 kHz, AC3, 3/2 (L,C,R,l,r) + LFE ch, ~384 kbps [Одноголосый, Живов]
Аудио 4: Английский: 48 kHz, AC3, 3/2 (L,C,R,l,r) + LFE ch, ~1536 kbps
Субтитры: Русские (2 вида), английские
скриншоты
Изображение

Изображение

Изображение
Свернуть
Mi
Format : Matroska
Format version : Version 1
File size : 11.7 GiB
Duration : 1h 27mn
Overall bit rate : 19.2 Mbps
Movie name : The One (2003) 1080p BluRay CtrlHD - HDCLUB
Encoded date : UTC 2009-04-03 13:27:53
Writing application : mkvmerge v2.4.0 ('Fumbling Towards Ecstasy') built on Oct 11 2008 20:13:15
Writing library : libebml v0.7.7 + libmatroska v0.8.1

Video
ID : 1
Format : AVC
Format/Info : Advanced Video Codec
Format profile : High@L4.1
Format settings, CABAC : Yes
Format settings, ReFrames : 5 frames
Codec ID : V_MPEG4/ISO/AVC
Duration : 1h 27mn
Bit rate : 15.0 Mbps
Width : 1 920 pixels
Height : 800 pixels
Display aspect ratio : 2.40:1
Frame rate : 23.976 fps
Color space : YUV
Chroma subsampling : 4:2:0
Bit depth : 8 bits
Scan type : Progressive
Bits/(Pixel*Frame) : 0.407
Stream size : 8.92 GiB (76%)
Title : ViDEO
Writing library : x264 core 67 r1130M 8475977
Encoding settings : cabac=1 / ref=5 / deblock=1:-3:-3 / analyse=0x3:0x133 / me=esa / subme=9 / psy_rd=1.2:0.0 / mixed_ref=1 / me_range=32 / chroma_me=1 / trellis=2 / 8x8dct=1 / cqm=0 / deadzone=21,11 / chroma_qp_offset=-2 / threads=6 / nr=0 / decimate=1 / mbaff=0 / bframes=8 / b_pyramid=1 / b_adapt=2 / b_bias=0 / direct=3 / wpredb=1 / keyint=250 / keyint_min=25 / scenecut=40 / rc=2pass / bitrate=15000 / ratetol=1.0 / qcomp=0.60 / qpmin=10 / qpmax=51 / qpstep=4 / cplxblur=20.0 / qblur=0.5 / ip_ratio=1.40 / pb_ratio=1.30 / aq=1:1.00
Language : English

Audio #1
ID : 2
Format : DTS
Format/Info : Digital Theater Systems
Codec ID : A_DTS
Duration : 1h 27mn
Bit rate mode : Constant
Bit rate : 755 Kbps
Channel(s) : 6 channels
Channel positions : Front: L C R, Side: L R, LFE
Sampling rate : 48.0 KHz
Bit depth : 24 bits
Compression mode : Lossy
Delay relative to video : 42ms
Stream size : 471 MiB (4%)
Title : DTS 5.1 768 Kbps [Многоголосый]
Language : Russian

Audio #2
ID : 3
Format : DTS
Format/Info : Digital Theater Systems
Codec ID : A_DTS
Duration : 1h 27mn
Bit rate mode : Constant
Bit rate : 1 510 Kbps
Channel(s) : 6 channels
Channel positions : Front: L C R, Side: L R, LFE
Sampling rate : 48.0 KHz
Bit depth : 24 bits
Compression mode : Lossy
Stream size : 943 MiB (8%)
Title : DTS 5.1 1536 Kbps [Гланц, Казакова]
Language : Russian

Audio #3
ID : 4
Format : AC-3
Format/Info : Audio Coding 3
Mode extension : CM (complete main)
Codec ID : A_AC3
Duration : 1h 27mn
Bit rate mode : Constant
Bit rate : 384 Kbps
Channel(s) : 6 channels
Channel positions : Front: L C R, Side: L R, LFE
Sampling rate : 48.0 KHz
Bit depth : 16 bits
Compression mode : Lossy
Delay relative to video : 42ms
Stream size : 240 MiB (2%)
Title : AC3 5.1 384 Kbps [Живов]
Language : Russian

Audio #4
ID : 5
Format : DTS
Format/Info : Digital Theater Systems
Codec ID : A_DTS
Duration : 1h 27mn
Bit rate mode : Constant
Bit rate : 1 510 Kbps
Channel(s) : 6 channels
Channel positions : Front: L C R, Side: L R, LFE
Sampling rate : 48.0 KHz
Bit depth : 24 bits
Compression mode : Lossy
Stream size : 943 MiB (8%)
Title : DTS 5.1 1536 Kbps
Language : English

Audio #5
ID : 6
Format : Vorbis
Format settings, Floor : 1
Codec ID : A_VORBIS
Duration : 1h 27mn
Bit rate mode : Variable
Bit rate : 80.0 Kbps
Channel(s) : 2 channels
Sampling rate : 48.0 KHz
Compression mode : Lossy
Stream size : 50.0 MiB (0%)
Title : OGG 2.0 @ 80 kbps [Commentary]
Writing library : libVorbis 1.2 (UTC 2007-06-22)
Language : English
Writing application : VLC media player

Text #1
ID : 7
Format : UTF-8
Codec ID : S_TEXT/UTF8
Codec ID/Info : UTF-8 Plain Text
Language : Russian

Text #2
ID : 8
Format : UTF-8
Codec ID : S_TEXT/UTF8
Codec ID/Info : UTF-8 Plain Text
Language : Russian

Text #3
ID : 9
Format : UTF-8
Codec ID : S_TEXT/UTF8
Codec ID/Info : UTF-8 Plain Text
Language : English

Свернуть
_________________
Изображение
Не в сети
Профиль  
 Добавлено: 2012-06-08 16:59 (спустя 5 месяцев 18 дней)
Модератор
Аватара пользователя
Стаж: 6 лет 10 месяцев
Возраст: 33
Сообщений: 5908
Спасибок: 61255
Лайков: 3540
Спасибо.
_________________
ИзображениеИзображение Изображение
Изображение
Не в сети
Профиль  
 Добавлено: 2012-07-29 12:09 (спустя 1 месяц 20 дней)
Аватара пользователя
Стаж: 8 лет
Возраст: 45
Сообщений: 40
достойная картина 9 из 10
Не в сети
Профиль  
 Добавлено: 2012-11-14 19:51 (спустя 3 месяца 16 дней)
Top-seeder
Стаж: 9 лет 1 месяц
Сообщений: 748
Спасибок: 636
Лайков: 3
Как-то упустил я этот фильм, надо стянуть, оценить....
Не в сети
Профиль  
Начать новую темуОтветить на тему  [ Сообщений: 4 ] 
Вы не можете начинать темы
Вы не можете отвечать на сообщения
Вы не можете редактировать свои сообщения
Вы не можете удалять свои сообщения