Правила форума

  • В этом разделе создание новых тем Запрещено.
  • Для создания новых тем пользуйтесь Корневым разделом DVD и HD фильмы.
Начать новую темуОтветить на тему  [ Сообщений: 8 ] 
Торрент файл
Размер: 15 GB • Зарегистрирован: 5 лет • Статус: Проверено
Скачан: 58 раз • Желающих скачать: 0 • Поблагодарили: 17 раз
 Раздают: 0  |  0 KB/s  ]   Качают: 0  |  0 KB/s  ] 
 Полного источника не было 3 дня 
Сообщения
 Добавлено: 2011-11-09 19:39
Top-releaser
Аватара пользователя
Стаж: 8 лет 7 месяцев
Сообщений: 1286
Спасибок: 3420
Лайков: 7
Психо / Psycho


«We All Get Crazy Sometimes»

Изображение
Год выпуска: 1960
Страна: США
Жанр: ужасы, триллер, детектив
Продолжительность: 01:48:51
Перевод: Субтитры, Профессиональный (многоголосый, закадровый), Авторский (Живов Юрий)

Режиссер: Альфред Хичкок
Сценарий: Джозеф Стефано, Роберт Блох
Продюсер: Альфред Хичкок
Оператор: Джон Л. Расселл
Композитор: Бернард Херрманн

В ролях: Энтони Перкинс (Norman Bates,), Вера Майлз (Lila Crane), Джон Гэвин (Sam Loomis), Джанет Ли (Marion Crane,), Мартин Болсам (Det. Milton Arbogast), Джон МакИнтайр (Sheriff Al Chambers), Саймон Оукленд (Dr. Fred Richman), Фрэнк Альбертсон (Tom Cassidy), Патриция Хичкок (Caroline,), Вон Тейлор (George Lowery), Лёрин Таттл (Mrs. Chambers), Джон Андерсон (California Charlie)

Описание: Девушка, недовольная романом с разведенным мужчиной, уделяющим ей внимание только наездами, крадет на работе крупную сумму денег и в спешке бежит из города. В мотеле, где она остановилась на ночь, ей приходится столкнуться с его молодым владельцем...

Раздача: Изображение

Изображение
Изображение

Бюджет, Сборы, Премьеры, Релизы
    Бюджет: $806 947
    Сборы в США: $32 000 000
    Мировая премьера: 16 июня 1960
Свернуть

Качество: BDRip
Формат: Matroska
Видео: AVC; 1920x1040 (16:9); 15000 kbps; 23,976 fps; 0,313 bit/pixel
Аудио №1: Russian; DTS; 1509 kbps; CBR; 6 channels; 24 bit
Аудио №2: Russian; DTS; 1509 kbps; CBR; 6 channels; 24 bit
Аудио №3: English; DTS; 1509 kbps; CBR; 6 channels; 24 bit
Аудио №4: English; AC3; 192 kbps; CBR; 2 channels; 16 bit

Субтитры №1: Russian
Субтитры №2: English
Субтитры №3: German

MediaInfo
Общее
Уникальный идентификатор : 193613729163775379080667717483666554384 (0x91A8A5DA6BEFB77DA7DD05D4C5633E10)
Полное имя : E:\Видео\Psycho.1960.BDRip.1080p.[R.G.KINOvNINO].mkv
Формат : Matroska
Версия формата : Version 2
Размер файла : 15,0 Гбайт
Продолжительность : 1 ч. 48 м.
Общий поток : 19,7 Мбит/сек
Дата кодирования : UTC 2010-09-07 18:49:47
Программа кодирования : mkvmerge v4.2.0 ('No Talking') сборка от Jul 28 2010 18:38:23
Библиотека кодирования : libebml v1.0.0 + libmatroska v1.0.0

Видео
Идентификатор : 1
Формат : AVC
Формат/Информация : Advanced Video Codec
Профиль формата : High@L4.1
Параметр CABAC формата : Да
Параметр ReFrames формата : 4 кадра
Идентификатор кодека : V_MPEG4/ISO/AVC
Продолжительность : 1 ч. 48 м.
Битрейт : 15,0 Мбит/сек
Ширина : 1920 пикс.
Высота : 1040 пикс.
Соотношение сторон : 16:9
Частота кадров : 23,976 кадр/сек
Цветовое пространство : YUV
Подвыборка цветности : 4:2:0
Битовая глубина : 8 бит
Тип развёртки : Прогрессивная
Бит/(Пиксели*Кадры) : 0.313
Размер потока : 11,1 Гбайт (74%)
Заголовок : Psycho.1960.1080p.BluRay.DTS.x264-CtrlHD
Библиотека кодирования : x264 core 98 r1629 2e81ce1
Настройки программы : cabac=1 / ref=4 / deblock=1:-3:-3 / analyse=0x3:0x133 / me=esa / subme=10 / psy=1 / psy_rd=0.80:0.00 / mixed_ref=1 / me_range=48 / chroma_me=1 / trellis=2 / 8x8dct=1 / cqm=0 / deadzone=21,11 / fast_pskip=0 / chroma_qp_offset=-2 / threads=12 / sliced_threads=0 / nr=0 / decimate=0 / interlaced=0 / constrained_intra=0 / bframes=7 / b_pyramid=2 / b_adapt=2 / b_bias=0 / direct=3 / weightb=1 / weightp=2 / keyint=250 / keyint_min=25 / scenecut=40 / intra_refresh=0 / rc_lookahead=40 / rc=2pass / mbtree=1 / bitrate=15000 / ratetol=1.0 / qcomp=0.60 / qpmin=10 / qpmax=51 / qpstep=4 / cplxblur=20.0 / qblur=0.5 / ip_ratio=1.40 / aq=1:0.80
Язык : English

Аудио #1
Идентификатор : 2
Формат : DTS
Формат/Информация : Digital Theater Systems
Идентификатор кодека : A_DTS
Продолжительность : 1 ч. 48 м.
Вид битрейта : Постоянный
Битрейт : 1510 Кбит/сек
Каналы : 6 каналов
Расположение каналов : Front: L C R, Side: L R, LFE
Частота : 48,0 КГц
Битовая глубина : 24 бит
Метод сжатия : С потерями
Размер потока : 1,15 Гбайт (8%)
Заголовок : Юрий Живов
Язык : Russian

Аудио #2
Идентификатор : 3
Формат : DTS
Формат/Информация : Digital Theater Systems
Идентификатор кодека : A_DTS
Продолжительность : 1 ч. 48 м.
Вид битрейта : Постоянный
Битрейт : 1510 Кбит/сек
Каналы : 6 каналов
Расположение каналов : Front: L C R, Side: L R, LFE
Частота : 48,0 КГц
Битовая глубина : 24 бит
Метод сжатия : С потерями
Размер потока : 1,15 Гбайт (8%)
Заголовок : Многоголоска SomeWAX
Язык : Russian

Аудио #3
Идентификатор : 4
Формат : DTS
Формат/Информация : Digital Theater Systems
Идентификатор кодека : A_DTS
Продолжительность : 1 ч. 48 м.
Вид битрейта : Постоянный
Битрейт : 1510 Кбит/сек
Каналы : 6 каналов
Расположение каналов : Front: L C R, Side: L R, LFE
Частота : 48,0 КГц
Битовая глубина : 24 бит
Метод сжатия : С потерями
Размер потока : 1,15 Гбайт (8%)
Заголовок : Main Audio
Язык : English

Аудио #4
Идентификатор : 5
Формат : AC-3
Формат/Информация : Audio Coding 3
Расширение режима : CM (complete main)
Идентификатор кодека : A_AC3
Продолжительность : 1 ч. 48 м.
Вид битрейта : Постоянный
Битрейт : 192 Кбит/сек
Каналы : 2 канала
Расположение каналов : Front: L R
Частота : 48,0 КГц
Битовая глубина : 16 бит
Метод сжатия : С потерями
Размер потока : 149 Мбайт (1%)
Заголовок : comments
Язык : English

Текст #1
Идентификатор : 6
Формат : UTF-8
Идентификатор кодека : S_TEXT/UTF8
Идентификатор кодека/Информация : UTF-8 Plain Text
Заголовок : перевод SomeWAX
Язык : Russian

Текст #2
Идентификатор : 7
Формат : UTF-8
Идентификатор кодека : S_TEXT/UTF8
Идентификатор кодека/Информация : UTF-8 Plain Text
Язык : English

Текст #3
Идентификатор : 8
Формат : UTF-8
Идентификатор кодека : S_TEXT/UTF8
Идентификатор кодека/Информация : UTF-8 Plain Text
Язык : German

Свернуть

Скриншоты

Изображение

Изображение

Изображение

Изображение

Изображение

Изображение

Свернуть
Не в сети
Профиль  
 Добавлено: 2011-11-14 20:55 (спустя 5 дней)
Аватара пользователя
Стаж: 7 лет
Сообщений: 4
Shamman
спасибо давно искал
Не в сети
Профиль  
 Добавлено: 2011-11-15 21:05 (спустя 1 день)
Аватара пользователя
Стаж: 7 лет 4 месяца
Сообщений: 13
Ну, что же, попробуем скачать, фильм то стоящий, жаль вот только раздающих малавато. Спасибо за фильм.
Не в сети
Профиль  
 Добавлено: 2013-06-13 18:35 (спустя 1 год 6 месяцев)
Top-releaser
Аватара пользователя
Стаж: 8 лет 7 месяцев
Сообщений: 1286
Спасибок: 3420
Лайков: 7
ап :)
Не в сети
Профиль  
 Добавлено: 2014-07-15 07:59 (спустя 1 год 1 месяц)
Аватара пользователя
Стаж: 8 лет 6 месяцев
Сообщений: 291
Спасибок: 307
спс за кино...иногда можно что-нить из старенького глянуть, тем более в таком хорошем качестве. Фильм интересный, но не пугающий..))
Не в сети
Профиль  
 Добавлено: 2014-07-16 18:13 (спустя 1 день 10 часов)
Стаж: 8 лет 1 месяц
Сообщений: 215
Лайков: 24
Рейтинг тоже 1960 года?
Не в сети
Профиль  
 Добавлено: 2014-09-20 10:29 (спустя 2 месяца 3 дня)
Аватара пользователя
Стаж: 7 лет 10 месяцев
Сообщений: 64
Лайков: 2
Дайте скорости ребят, пожалуйста)) Встаньте на раздачу)
Не в сети
Профиль  
 Добавлено: 2014-09-21 18:15 (спустя 1 день 7 часов)
Стаж: 6 лет 1 месяц
Сообщений: 2
Благодарю)
Не в сети
Профиль  
Начать новую темуОтветить на тему  [ Сообщений: 8 ] 
Вы не можете начинать темы
Вы не можете отвечать на сообщения
Вы не можете редактировать свои сообщения
Вы не можете удалять свои сообщения