Правила форума

  • В этом разделе создание новых тем Запрещено.
  • Для создания новых тем пользуйтесь Корневым разделом DVD и HD фильмы.
Начать новую темуОтветить на тему  [ Сообщений: 3 ] 
Торрент файл
Размер: 7.96 GB • Зарегистрирован: 4 года 7 месяцев • Статус: Проверено
Скачан: 27 раз • Желающих скачать: 0 • Поблагодарили: 13 раз
 Раздают: 0  |  0 KB/s  ]   Качают: 0  |  0 KB/s  ] 
 Полного источника не было 11 часов 
Сообщения
 Добавлено: 2012-05-07 10:08
Модератор релиз-группы
Аватара пользователя
Стаж: 9 лет 1 месяц
Возраст: 97
Сообщений: 11660
Спасибок: 6533
Лайков: 269
Птичка на проводе / Bird on a Wire

Изображение

Страна: сша
Жанр: Приключения, Комедия
Год выпуска: 1990
Продолжительность: 01:45:46
Перевод: Профессиональный (многоголосый закадровый)
Профессиональный (двухголосый закадровый)
Авторский (одноголосый закадровый)\Гаврилов\
Авторский (одноголосый закадровый)\Иванов\

Режиссер: Джон Бэдэм / John Badham

В ролях: Мел Гибсон / Mel Gibson, Голди Хоун / Goldie Hawn, Дэвид Кэррэдин / David Carradine, Билл Дьюк / Bill Duke, Стивен Тоболовски / Stephen Tobolowsky, Джоэн Северэнс / Joan Severance

Описание: Дела Рика Джармина, живущего тайной жизнью по специально разработанной ФБР программе защиты свидетелей, складывается не лучшим образом. Дело в том, что пятнадцать лет назад он дал показания против полицейского, промышляющего торговлей наркотиками, что позволило усадить негодяя за решетку. Преступник, отсидевший свой срок, решает отомстить «стукачу» и начинает охоту на Джармина. Случайно Рик сталкивается с Мэриэнн Грэйвз, своей бывшей невестой. Мэриэнн, естественно, узнает его, что облегчает задачу убийцам, следующим за Джармином по пятам. Теперь бывшим возлюбленным вместе предстоит спасаться от злодеев, но именно это помогает им вернуть утраченную любовь
Изображение
Качество: HDTV 1080i
Формат: mkv
Видео: 1920 x 1080 (1.778), at 50 fps(original 25 fps), AVC at 9973 Кбит/сек
Аудио: AC-3 at 192 Кбит/сек 2 канала, 48,0 КГц MVO
Аудио 2: AC-3 at 192 Кбит/сек 2 канала, 48,0 КГц СТС
Аудио 3: AC-3 at 192 Кбит/сек 2 канала, 48,0 КГц Гаврилов
Аудио 4: AC-3 at 192 Кбит/сек 2 канала, 48,0 КГц Иванов
скриншоты
Изображение

Изображение

Изображение
Свернуть
Mi
Format : Matroska
Format version : Version 2
File size : 7.96 GiB
Duration : 1h 45mn
Overall bit rate mode : Variable
Overall bit rate : 10.8 Mbps
Encoded date : UTC 2012-05-07 06:54:56
Writing application : mkvmerge v5.5.0 ('Healer') built on Apr 6 2012 21:43:24
Writing library : libebml v1.2.3 + libmatroska v1.3.0

Video
ID : 1
Format : AVC
Format/Info : Advanced Video Codec
Format profile : Main@L4.0
Format settings, CABAC : Yes
Format settings, ReFrames : 4 frames
Format settings, GOP : M=4, N=12
Codec ID : V_MPEG4/ISO/AVC
Duration : 1h 45mn
Bit rate mode : Variable
Bit rate : 9 789 Kbps
Maximum bit rate : 40.0 Mbps
Width : 1 920 pixels
Height : 1 080 pixels
Display aspect ratio : 16:9
Frame rate : 50.000 fps
Original frame rate : 25.000 fps
Color space : YUV
Chroma subsampling : 4:2:0
Bit depth : 8 bits
Scan type : Interlaced
Scan order : Top Field First
Bits/(Pixel*Frame) : 0.094
Stream size : 7.23 GiB (91%)
Default : Yes
Forced : No
Color primaries : BT.709-5, BT.1361, IEC 61966-2-4, SMPTE RP177
Transfer characteristics : BT.709-5, BT.1361
Matrix coefficients : BT.709-5, BT.1361, IEC 61966-2-4 709, SMPTE RP177

Audio #1
ID : 2
Format : AC-3
Format/Info : Audio Coding 3
Mode extension : CM (complete main)
Codec ID : A_AC3
Duration : 1h 45mn
Bit rate mode : Constant
Bit rate : 192 Kbps
Channel(s) : 2 channels
Channel positions : Front: L R
Sampling rate : 48.0 KHz
Bit depth : 16 bits
Compression mode : Lossy
Stream size : 145 MiB (2%)
Language : Russian
Default : Yes
Forced : No

Audio #2
ID : 3
Format : AC-3
Format/Info : Audio Coding 3
Mode extension : CM (complete main)
Codec ID : A_AC3
Duration : 1h 45mn
Bit rate mode : Constant
Bit rate : 192 Kbps
Channel(s) : 2 channels
Channel positions : Front: L R
Sampling rate : 48.0 KHz
Bit depth : 16 bits
Compression mode : Lossy
Stream size : 145 MiB (2%)
Language : Russian
Default : No
Forced : No

Audio #3
ID : 4
Format : AC-3
Format/Info : Audio Coding 3
Mode extension : CM (complete main)
Codec ID : A_AC3
Duration : 1h 45mn
Bit rate mode : Constant
Bit rate : 192 Kbps
Channel(s) : 2 channels
Channel positions : Front: L R
Sampling rate : 48.0 KHz
Bit depth : 16 bits
Compression mode : Lossy
Stream size : 145 MiB (2%)
Language : Russian
Default : No
Forced : No

Audio #4
ID : 5
Format : AC-3
Format/Info : Audio Coding 3
Mode extension : CM (complete main)
Codec ID : A_AC3
Duration : 1h 45mn
Bit rate mode : Constant
Bit rate : 192 Kbps
Channel(s) : 2 channels
Channel positions : Front: L R
Sampling rate : 48.0 KHz
Bit depth : 16 bits
Compression mode : Lossy
Stream size : 145 MiB (2%)
Language : Russian
Default : No
Forced : No

Свернуть
_________________
Изображение
Не в сети
Профиль  
 Добавлено: 2012-05-08 08:10 (спустя 22 часа)
Аватара пользователя
Стаж: 7 лет 6 месяцев
Сообщений: 35
Спасибок: 290
Спасибо за классный фильм! :co_ol:
Не в сети
Профиль  
 Добавлено: 2012-05-11 10:49 (спустя 3 дня)
Стаж: 7 лет
Сообщений: 46
Да, фильм изумительный!!! Голди Хоун в нём просто чудо!!! :co_ol: :ya_hoo_oo:
Не в сети
Профиль  
Начать новую темуОтветить на тему  [ Сообщений: 3 ] 
Вы не можете начинать темы
Вы не можете отвечать на сообщения
Вы не можете редактировать свои сообщения
Вы не можете удалять свои сообщения