Правила форума

  • В этом разделе создание новых тем Запрещено.
  • Для создания новых тем пользуйтесь Корневым разделом DVD и HD фильмы.
Начать новую темуОтветить на тему  [ 1 сообщение ] 
Торрент файл
Размер: 7.74 GB • Зарегистрирован: 2 года 3 месяца • Статус: Проверено
Скачан: 14 раз • Желающих скачать: 0 • Поблагодарили: 9 раз
 Раздают: 0  |  0 KB/s  ]   Качают: 0  |  0 KB/s  ] 
 Полного источника не было 10 месяцев 
Сообщения
 Добавлено: 2014-08-22 10:52
RG-ELEKTRO
Аватара пользователя
Стаж: 2 года 3 месяца
Сообщений: 7928
Спасибок: 53783
Лайков: 3304
Изображение

Информация о фильме
    Русское название: Пуленепробиваемый монах
    Оригинальное название: Bulletproof Monk
    Год выхода: 2003
    Жанр: Боевик, комедия, приключения
    Режиссер: Пол Хантер
    Выпущено: США
    Продолжительность: 01:43:44
    Перевод: Дублированный, Авторский (В.Королёв)
    В ролях: Юнь-Фат Чоу, Шонн Уильям Скотт, Джейми Кинг, Карел Роден, Виктория Смерфит, Маркус Дж. Пирэ, Мако, Роджер Йуан, Шон Белл, Kishaya Dudley, Роб Арчер, Mauricio Rodas, Bayo Akinfemi, Расселл Юэнь, Альберт Чунг, Керис Ан, Paul Fauteux, Raven Dauda, Isys McKoy, Питер Снайдер, Suresh John

Сюжет фильма
    Монах мастер боевых искусств, который охраняет могущественный древний свиток таинственный артефакт, содержащий ключ к безграничной власти. Монаху нужно найти следующего хранителя свитка, и поиски приводят его в Америку. Согласно древнему пророчеству и к изумлению Монаха его преемником оказывается обаятельный хулиган по имени Кар.Пока Монах обучает Кара, как выполнять свою работу, этому невероятному дуэту приходится защищать свиток от одержимого жаждой власти человека, который гоняется за ним 60 лет.В суматохе невероятной акробатики, схваток с применением боевых искусств и остроумных шуток эта комическая странная парочка должна сделать всё, чтобы свиток не попал в руки злодея.


Изображение

Файл
    Качество: BDRip 1080p (исходник Blu-ray Disc Remux)
    Формат: MKV
    Видео: 1920x816, 9169 Кбит/сек, 23,976 кадр/сек, AVC, x264, High@L4.1, 2.35:1, 0.244 Бит/[Пиксели*Кадры]
    Аудио 1: AC-3, 448 Кбит/сек, 6 канала(ов), 48,0 КГц - Дублированный / Русский
    Аудио 1: AC-3, 448 Кбит/сек, 6 канала(ов), 48,0 КГц - Одноголосый закадровый, В.Королёв
    Аудио 2: AC-3, 640 Кбит/сек, 6 канала(ов), 48,0 КГц - Оригинал / Английский
    Субтитры: Русские | Полные, Английские | Полные
    Форсированные субтитры: Нет
    Чаптеры (Главы): Есть


"Скриншоты:"
ИзображениеИзображениеИзображениеИзображениеИзображениеИзображение
Свернуть

"MI"
Format : Matroska
Format version : Version 2
File size : 7.74 GiB
Duration : 1h 43mn
Overall bit rate : 10.7 Mbps
Movie name : Пуленепробиваемый монах.(2003).BDRip.1080p.[envy]
Encoded date : UTC 2014-08-22 04:02:47
Writing application : mkvmerge v5.8.0 ('No Sleep / Pillow') built on Sep 2 2012 15:37:04
Writing library : libebml v1.2.3 + libmatroska v1.3.0

Video
ID : 1
Format : AVC
Format/Info : Advanced Video Codec
Format profile : High@L4.1
Format settings, CABAC : Yes
Format settings, ReFrames : 5 frames
Codec ID : V_MPEG4/ISO/AVC
Duration : 1h 43mn
Bit rate : 9 169 Kbps
Width : 1 920 pixels
Height : 816 pixels
Display aspect ratio : 2.35:1
Frame rate mode : Constant
Frame rate : 23.976 fps
Color space : YUV
Chroma subsampling : 4:2:0
Bit depth : 8 bits
Scan type : Progressive
Bits/(Pixel*Frame) : 0.244
Stream size : 6.48 GiB (84%)
Title : Пуленепробиваемый монах.(2003).BDRip.1080p.[envy]
Writing library : x264 core 142 r2453 ea0ca51
Encoding settings : cabac=1 / ref=5 / deblock=1:-2:-1 / analyse=0x3:0x113 / me=umh / subme=11 / psy=1 / psy_rd=1.00:0.00 / mixed_ref=1 / me_range=32 / chroma_me=1 / trellis=2 / 8x8dct=1 / cqm=0 / deadzone=21,11 / fast_pskip=0 / chroma_qp_offset=-2 / threads=12 / lookahead_threads=1 / sliced_threads=0 / nr=0 / decimate=1 / interlaced=0 / bluray_compat=0 / constrained_intra=0 / bframes=5 / b_pyramid=2 / b_adapt=2 / b_bias=0 / direct=3 / weightb=1 / open_gop=0 / weightp=2 / keyint=240 / keyint_min=23 / scenecut=40 / intra_refresh=0 / rc=2pass / mbtree=0 / bitrate=9169 / ratetol=2.0 / qcomp=0.60 / qpmin=0 / qpmax=69 / qpstep=4 / cplxblur=20.0 / qblur=0.5 / ip_ratio=1.40 / pb_ratio=1.30 / aq=2:1.00
Language : English
Default : Yes
Forced : No

Audio #1
ID : 2
Format : AC-3
Format/Info : Audio Coding 3
Mode extension : CM (complete main)
Format settings, Endianness : Big
Codec ID : A_AC3
Duration : 1h 43mn
Bit rate mode : Constant
Bit rate : 448 Kbps
Channel(s) : 6 channels
Channel positions : Front: L C R, Side: L R, LFE
Sampling rate : 48.0 KHz
Bit depth : 16 bits
Compression mode : Lossy
Stream size : 332 MiB (4%)
Title : Dub
Language : Russian
Default : Yes
Forced : No

Audio #2
ID : 3
Format : AC-3
Format/Info : Audio Coding 3
Mode extension : CM (complete main)
Format settings, Endianness : Big
Codec ID : A_AC3
Duration : 1h 43mn
Bit rate mode : Constant
Bit rate : 448 Kbps
Channel(s) : 6 channels
Channel positions : Front: L C R, Side: L R, LFE
Sampling rate : 48.0 KHz
Bit depth : 16 bits
Compression mode : Lossy
Stream size : 332 MiB (4%)
Title : Koroljov
Language : Russian
Default : No
Forced : No

Audio #3
ID : 4
Format : AC-3
Format/Info : Audio Coding 3
Mode extension : CM (complete main)
Format settings, Endianness : Big
Codec ID : A_AC3
Duration : 1h 43mn
Bit rate mode : Constant
Bit rate : 640 Kbps
Channel(s) : 6 channels
Channel positions : Front: L C R, Side: L R, LFE
Sampling rate : 48.0 KHz
Bit depth : 16 bits
Compression mode : Lossy
Stream size : 475 MiB (6%)
Title : Eng
Language : English
Default : No
Forced : No

Text #1
ID : 5
Format : UTF-8
Codec ID : S_TEXT/UTF8
Codec ID/Info : UTF-8 Plain Text
Title : full
Language : Russian
Default : No
Forced : No

Text #2
ID : 6
Format : UTF-8
Codec ID : S_TEXT/UTF8
Codec ID/Info : UTF-8 Plain Text
Title : full
Language : English
Default : No
Forced : No

Menu
00:00:00.000 : :Chapter 01
00:02:43.328 : :Chapter 02
00:05:59.609 : :Chapter 03
00:10:54.069 : :Chapter 04
00:15:46.487 : :Chapter 05
00:18:10.881 : :Chapter 06
00:23:36.705 : :Chapter 07
00:24:47.860 : :Chapter 08
00:27:53.254 : :Chapter 09
00:31:51.868 : :Chapter 10
00:35:36.509 : :Chapter 11
00:37:53.353 : :Chapter 12
00:39:54.433 : :Chapter 13
00:42:24.958 : :Chapter 14
00:47:28.094 : :Chapter 15
00:49:48.527 : :Chapter 16
00:54:03.364 : :Chapter 17
00:56:58.623 : :Chapter 18
01:00:11.691 : :Chapter 19
01:03:30.305 : :Chapter 20
01:06:03.668 : :Chapter 21
01:10:10.539 : :Chapter 22
01:15:17.304 : :Chapter 23
01:16:35.006 : :Chapter 24
01:19:15.709 : :Chapter 25
01:21:25.171 : :Chapter 26
01:23:26.251 : :Chapter 27
01:24:43.620 : :Chapter 28
01:29:25.151 : :Chapter 29
01:31:36.115 : :Chapter 30
01:35:31.350 : :Chapter 31
01:37:42.606 : :Chapter 32
Свернуть


_________________
Не ищите меня в "ВКонтакте", в "Одноклассниках" меня нет - я на трекерах сижу!
Не в сети
Профиль  
Начать новую темуОтветить на тему  [ 1 сообщение ] 
Вы не можете начинать темы
Вы не можете отвечать на сообщения
Вы не можете редактировать свои сообщения
Вы не можете удалять свои сообщения