Правила форума

  • В этом разделе создание новых тем Запрещено.
  • Для создания новых тем пользуйтесь Корневым разделом DVD и HD фильмы.
Начать новую темуОтветить на тему  [ 1 сообщение ] 
Торрент файл
Размер: 4.61 GB • Зарегистрирован: 5 лет 5 месяцев • Статус: Проверено
Скачан: 59 раз • Желающих скачать: 0 • Поблагодарили: 14 раз
 Раздают: 0  |  0 KB/s  ]   Качают: 0  |  0 KB/s  ] 
 Полного источника не было 1 год 11 месяцев 
Сообщения
 Добавлено: 2011-07-02 20:21
Руководитель релиз-группы
Аватара пользователя
Стаж: 9 лет 1 месяц
Возраст: 28
Сообщений: 4244
Спасибок: 31991
Лайков: 32
Изображение

Пульс
Pulse


«Вторжение началось»

Год выпуска: 2006
Страна: Изображение США
Жанр: ужасы, фантастика, триллер, детектив
Продолжительность: 01:28:10
Перевод: Профессиональный (полное дублирование) + Оригинал + Субтитры (Russian, English, Spanish, Swedish, Finnish, Dutch)

Режиссер: Джим Сонзеро
Сценарий: Уэс Крэйвен, Рэй Райт, Киёси Куросава
Продюсер: Брайан Кокс, Майкл Лихи, Ананд Синх
Оператор: Марк Пламмер
Композитор: Элиа Кмирал

В ролях: Кристен Белл, Йен Сомерхалдер, Кристина Милиан, Рик Гонзалез, Джонатан Такер, Сэмм Ливайн, Октавия Спенсер, Джереми Гаскин, Рон Рифкин, Джозеф Гатт

Описание: Представьте себе, что беспроводные технологии могут связывать человека не только с кем-либо находящимся на другом конце земного шара, но и с другим миром. Миром мертвых. Представьте, что ваш сотовый телефон или ваша электронная почта — дверь. И когда вы звоните по мобильному, или работаете с e-mail, эта дверь открывается, и в наш мир проникают они. Они уже умерли. И они могут сделать так, что умрете и вы. Спрятаться негде, убежать невозможно. Вы уже заражены.

Раздача: Изображение

kinopoisk.ru: 6.156 (5 340)
imdb.com: 4.50 (14 724)


Доп. информация
Бюджет: $20 500 000
Сборы в мире: $29 767 584
Сборы в США: $20 264 436
Мировая премьера: 11 августа 2006
Рейтинг PG-13 — Parents strongly cautioned. Дети до 13 лет допускаются на фильм только с родителями
Изображение
Настоятельное предостережение родителям. Некоторый материал может быть неподходящим для детей до 13 лет. Данный рейтинг показывает, что оценённый фильм может быть неподходящим для детей. Родители должны быть особенно осторожны, разрешая своим маленьким детям просмотр. Грубое или продолжительное насилие отсутствует; сексуальная ориентация на наготу отсутствует; некоторые сцены употребления наркотиков могут присутствовать; можно услышать единичные употребления грубой сексуальной лексики.
Свернуть
Свернуть

Качество: HDDVDRip, 720p
Формат: Matroska
Видео: x.264; 1280x544 (2.35:1); 6454 kbps; 23.976 fps; 0.378 bpf
Аудио #1: AC3; 384 kbps; 48.0 kHz; 6 channels [RUS]
Аудио #2: AC3; 640 kbps; 48.0 kHz; 6 channels [ENG]

MediaInfo
General
Count : 257
Count of stream of this kind : 1
Kind of stream : General
Kind of stream : General
Stream identifier : 0
Count of video streams : 1
Count of audio streams : 2
Count of text streams : 6
Video_Format_List : AVC
Video_Format_WithHint_List : AVC
Codecs Video : AVC
Video_Language_List : English
Audio_Format_List : AC-3 / AC-3
Audio_Format_WithHint_List : AC-3 / AC-3
Audio codecs : AC3 / AC3
Audio_Language_List : Russian / English
Text_Format_List : VobSub / ASS / ASS / ASS / ASS / ASS
Text_Format_WithHint_List : VobSub / ASS / ASS / ASS / ASS / ASS
Text codecs : VobSub / ASS / ASS / ASS / ASS / ASS
Text_Language_List : Russian / English / Finnish / Spanish / Swedish / Dutch
Complete name : I:\Pulse.2006.HDDVDRip.720p[R.G.KiNOvNiNO].mkv
Folder name : I:
File name : Pulse.2006.HDDVDRip.720p[R.G.KiNOvNiNO]
File extension : mkv
Format : Matroska
Format : Matroska
Format/Url : http://packs.matroska.org/
Format/Extensions usually used : mkv mka mks
Codec : Matroska
Codec : Matroska
Codec/Url : http://packs.matroska.org/
Codec/Extensions usually used : mkv mka mks
File size : 4947016016
File size : 4.61 GiB
File size : 5 GiB
File size : 4.6 GiB
File size : 4.61 GiB
File size : 4.607 GiB
Duration : 5290043
Duration : 1h 28mn
Duration : 1h 28mn 10s 43ms
Duration : 1h 28mn
Duration : 01:28:10.043
Overall bit rate : 7481248
Overall bit rate : 7 481 Kbps
Stream size : 102619948
Stream size : 97.9 MiB (2%)
Stream size : 98 MiB
Stream size : 98 MiB
Stream size : 97.9 MiB
Stream size : 97.87 MiB
Stream size : 97.9 MiB (2%)
Proportion of this stream : 0.02074
Encoded date : UTC 2011-07-02 16:46:58
File creation date : UTC 2011-07-02 16:46:58.000
File creation date (local) : 2011-07-02 20:46:58.000
File last modification date : UTC 2011-07-02 16:52:17.000
File last modification date (loc : 2011-07-02 20:52:17.000
Writing application : mkvmerge v2.9.8 ('C'est le bon') built on Aug 13 2009 12:49:06
Writing library : libebml v0.7.7 + libmatroska v0.8.1
Writing library : libebml v0.7.7 + libmatroska v0.8.1
Cover : Yes

Video
Count : 144
Count of stream of this kind : 1
Kind of stream : Video
Kind of stream : Video
Stream identifier : 0
ID : 1
ID : 1
UniqueID : 1
Format : AVC
Format/Info : Advanced Video Codec
Format/Url : http://developers.videolan.org/x264.html
Format profile : High@L5.1
Format settings : CABAC / 8 Ref Frames
Format settings, CABAC : Yes
Format settings, CABAC : Yes
Format settings, ReFrames : 8
Format settings, ReFrames : 8 frames
Muxing mode : Container profile=Unknown@5.1
Codec ID : V_MPEG4/ISO/AVC
Codec ID/Url : http://ffdshow-tryout.sourceforge.net/
Codec : V_MPEG4/ISO/AVC
Codec : AVC
Codec/Family : AVC
Codec/Info : Advanced Video Codec
Codec/Url : http://ffdshow-tryout.sourceforge.net/
Codec profile : High@L5.1
Codec settings : CABAC / 8 Ref Frames
Codec settings, CABAC : Yes
Codec_Settings_RefFrames : 8
Duration : 5284750
Duration : 1h 28mn
Duration : 1h 28mn 4s 750ms
Duration : 1h 28mn
Duration : 01:28:04.750
Bit rate : 6308371
Bit rate : 6 308 Kbps
Nominal bit rate : 6454000
Nominal bit rate : 6 454 Kbps
Width : 1280
Width : 1 280 pixels
Height : 544
Height : 544 pixels
Pixel aspect ratio : 1.000
Display aspect ratio : 2.353
Display aspect ratio : 2.35
Frame rate : 23.976
Frame rate : 23.976 fps
Frame count : 126834
Resolution : 24
Resolution : 24 bits
Colorimetry : 4:2:0
Scan type : Progressive
Scan type : Progressive
Interlacement : PPF
Interlacement : Progressive
Bits/(Pixel*Frame) : 0.378
Delay : 0
Stream size : 4167270564
Stream size : 3.88 GiB (84%)
Stream size : 4 GiB
Stream size : 3.9 GiB
Stream size : 3.88 GiB
Stream size : 3.881 GiB
Stream size : 3.88 GiB (84%)
Proportion of this stream : 0.84238
Writing library : x264 - core 54 svn-635M
Writing library : x264 core 54 svn-635M
Writing library/Name : x264
Writing library/Version : core 54 svn-635M
Encoding settings : cabac=1 / ref=5 / deblock=1:-3:-3 / analyse=0x3:0x133 / me=umh / subme=7 / brdo=1 / mixed_ref=1 / me_range=16 / chroma_me=1 / trellis=1 / 8x8dct=1 / cqm=2 / deadzone=21,11 / chroma_qp_offset=0 / threads=3 / nr=0 / decimate=1 / mbaff=0 / bframes=3 / b_pyramid=1 / b_adapt=1 / b_bias=0 / direct=3 / wpredb=1 / bime=1 / keyint=250 / keyint_min=25 / scenecut=40(pre) / rc=2pass / bitrate=6454 / ratetol=1.0 / rceq='blurCplx^(1-qComp)' / qcomp=0.60 / qpmin=10 / qpmax=51 / qpstep=4 / cplxblur=20.0 / qblur=0.5 / ip_ratio=1.40 / pb_ratio=1.30 / aq=1:0.3:15.0
Language : en
Language : English

Audio #1
Count : 122
Count of stream of this kind : 2
Kind of stream : Audio
Kind of stream : Audio
Stream identifier : 0
Stream identifier : 1
ID : 2
ID : 2
UniqueID : 3652727980
Format : AC-3
Format/Info : Audio Coding 3
Codec ID : A_AC3
Codec : AC3
Codec : AC3
Duration : 5290043
Duration : 1h 28mn
Duration : 1h 28mn 10s 43ms
Duration : 1h 28mn
Duration : 01:28:10.043
Bit rate mode : CBR
Bit rate mode : Constant
Bit rate : 384000
Bit rate : 384 Kbps
Channel(s) : 6
Channel(s) : 6 channels
Channel positions : Front: L C R, Surround: L R, LFE
Channel positions : 3/2.1
Sampling rate : 48000
Sampling rate : 48.0 KHz
SamplingCount : 253922064
Delay : 0
Video delay : 0
Video0 delay : 0
Stream size : 253922064
Stream size : 242 MiB (5%)
Stream size : 242 MiB
Stream size : 242 MiB
Stream size : 242 MiB
Stream size : 242.2 MiB
Stream size : 242 MiB (5%)
Proportion of this stream : 0.05133
Language : ru
Language : Russian

Audio #2
Count : 122
Count of stream of this kind : 2
Kind of stream : Audio
Kind of stream : Audio
Stream identifier : 1
Stream identifier : 2
ID : 3
ID : 3
UniqueID : 2126972089
Format : AC-3
Format/Info : Audio Coding 3
Codec ID : A_AC3
Codec : AC3
Codec : AC3
Duration : 5290043
Duration : 1h 28mn
Duration : 1h 28mn 10s 43ms
Duration : 1h 28mn
Duration : 01:28:10.043
Bit rate mode : CBR
Bit rate mode : Constant
Bit rate : 640000
Bit rate : 640 Kbps
Channel(s) : 6
Channel(s) : 6 channels
Channel positions : Front: L C R, Surround: L R, LFE
Channel positions : 3/2.1
Sampling rate : 48000
Sampling rate : 48.0 KHz
SamplingCount : 253922064
Delay : 0
Video delay : 0
Video0 delay : 0
Stream size : 423203440
Stream size : 404 MiB (9%)
Stream size : 404 MiB
Stream size : 404 MiB
Stream size : 404 MiB
Stream size : 403.6 MiB
Stream size : 404 MiB (9%)
Proportion of this stream : 0.08555
Language : en
Language : English

Text #1
Count : 78
Count of stream of this kind : 6
Kind of stream : Text
Kind of stream : Text
Stream identifier : 0
Stream identifier : 1
ID : 4
ID : 4
UniqueID : 3947831487
Format : VobSub
Codec ID : S_VOBSUB
Codec ID/Info : The same subtitle format used on DVDs
Codec : S_VOBSUB
Codec : VobSub
Codec/Info : The same subtitle format used on DVDs
Language : ru
Language : Russian

Text #2
Count : 78
Count of stream of this kind : 6
Kind of stream : Text
Kind of stream : Text
Stream identifier : 1
Stream identifier : 2
ID : 5
ID : 5
UniqueID : 2320566946
Format : ASS
Codec ID : S_TEXT/ASS
Codec ID/Info : Advanced Sub Station Alpha
Codec : S_TEXT/ASS
Codec : ASS
Codec/Info : Advanced Sub Station Alpha
Language : en
Language : English

Text #3
Count : 78
Count of stream of this kind : 6
Kind of stream : Text
Kind of stream : Text
Stream identifier : 2
Stream identifier : 3
ID : 6
ID : 6
UniqueID : 410853301
Format : ASS
Codec ID : S_TEXT/ASS
Codec ID/Info : Advanced Sub Station Alpha
Codec : S_TEXT/ASS
Codec : ASS
Codec/Info : Advanced Sub Station Alpha
Language : fi
Language : Finnish

Text #4
Count : 78
Count of stream of this kind : 6
Kind of stream : Text
Kind of stream : Text
Stream identifier : 3
Stream identifier : 4
ID : 7
ID : 7
UniqueID : 73670073
Format : ASS
Codec ID : S_TEXT/ASS
Codec ID/Info : Advanced Sub Station Alpha
Codec : S_TEXT/ASS
Codec : ASS
Codec/Info : Advanced Sub Station Alpha
Language : es
Language : Spanish

Text #5
Count : 78
Count of stream of this kind : 6
Kind of stream : Text
Kind of stream : Text
Stream identifier : 4
Stream identifier : 5
ID : 8
ID : 8
UniqueID : 1071082156
Format : ASS
Codec ID : S_TEXT/ASS
Codec ID/Info : Advanced Sub Station Alpha
Codec : S_TEXT/ASS
Codec : ASS
Codec/Info : Advanced Sub Station Alpha
Language : sv
Language : Swedish

Text #6
Count : 78
Count of stream of this kind : 6
Kind of stream : Text
Kind of stream : Text
Stream identifier : 5
Stream identifier : 6
ID : 9
ID : 9
UniqueID : 3833874358
Format : ASS
Codec ID : S_TEXT/ASS
Codec ID/Info : Advanced Sub Station Alpha
Codec : S_TEXT/ASS
Codec : ASS
Codec/Info : Advanced Sub Station Alpha
Language : nl
Language : Dutch
Свернуть

Скриншоты

Изображение

Изображение

Изображение

Изображение

Свернуть
_________________
«you failed because you had the wrong dream...»
Не в сети
Профиль  
Начать новую темуОтветить на тему  [ 1 сообщение ] 
Вы не можете начинать темы
Вы не можете отвечать на сообщения
Вы не можете редактировать свои сообщения
Вы не можете удалять свои сообщения