Правила форума

  • В этом разделе создание новых тем Запрещено.
  • Для создания новых тем пользуйтесь Корневым разделом DVD и HD фильмы.
Начать новую темуОтветить на тему  [ Сообщений: 2 ] 
Торрент файл
Размер: 2.64 GB • Зарегистрирован: 2 года 9 месяцев • Статус: T Временный релиз
Скачан: 22 раза • Желающих скачать: 0 • Поблагодарили: 13 раз
 Раздают: 0  |  0 KB/s  ]   Качают: 0  |  0 KB/s  ] 
 Полного источника не было 9 месяцев 
Сообщения
 Добавлено: 2014-03-04 15:23
Книголюб
Аватара пользователя
Стаж: 7 лет 2 месяца
Сообщений: 2823
Спасибок: 48829
Лайков: 73
Пуля
Bullet

«This time they messed with the wrong guy!»

Изображение


Год выпуска: 2013
Страна: США
Жанр: боевик, криминал
Продолжительность: 01:27:16
Перевод: Профессиональный (многоголосый закадровый)

Режиссёр: Ник Лион
В ролях: Дэнни Трэхо, Торстен Фогс, Джонатан Бэнкс, Кайл Вильяловос, Ив Мауро, Шери ДеЯнг, Эрик Блоссом, Джералд Уэбб, Тинсел Кори, Эрик Этебари
Описание: Пуля — это прозвище бескомпромиссного и жестокого полицейского, для которого борьба с преступностью является смыслом его жизни. В один ужасный день мафия похищает его внука, сама того не понимая какие неприятности на себя навлекая. Пуля берет закон в свои руки и начинает вершить правосудие без суда и следствия.
Мировая премьера: 25 февраля 2014
Премьера в России: 29 мая 2014, «All Media»
Бюджет: $3 000 000
Изображение 4.447 118

Качество: HQRip 720p
Формат: MKV
Видео кодек: H.264
Аудио кодек: DTS
Видео: 1280x546 23.976fps
Аудио #1: RUS: 48000Hz 6ch 448 Kbps
Аудио #2: ENG: 48000Hz 6ch 448 Kbps
MediaInfo
General
Unique ID : 236317955036979622141479773432941255001 (0xB1C92EBEE31FA7DA93F4F76960F61959)
Complete name : K:\Torrent\Bullet.mkv
Format : Matroska
Format version : Version 4 / Version 2
File size : 2.64 GiB
Duration : 1h 27mn
Overall bit rate : 4 332 Kbps
Movie name : = MediaClub = rip by Painter
Encoded date : UTC 2014-03-03 19:32:28
Writing application : mkvmerge v6.6.0 ('The Edge Of The In Between') built on Dec 1 2013 17:55:00
Writing library : libebml v1.3.0 + libmatroska v1.4.1

Video
ID : 1
Format : AVC
Format/Info : Advanced Video Codec
Format profile : High@L4.1
Format settings, CABAC : Yes
Format settings, ReFrames : 9 frames
Codec ID : V_MPEG4/ISO/AVC
Duration : 1h 27mn
Bit rate : 3 500 Kbps
Width : 1 280 pixels
Height : 546 pixels
Display aspect ratio : 2.35:1
Frame rate : 23.976 fps
Color space : YUV
Chroma subsampling : 4:2:0
Bit depth : 8 bits
Scan type : Progressive
Bits/(Pixel*Frame) : 0.209
Stream size : 2.08 GiB (79%)
Writing library : x264 core 130 r2273 b3065e6
Encoding settings : cabac=1 / ref=9 / deblock=1:-3:-3 / analyse=0x3:0x133 / me=esa / subme=11 / psy=1 / psy_rd=1.05:0.20 / mixed_ref=1 / me_range=32 / chroma_me=1 / trellis=2 / 8x8dct=1 / cqm=0 / deadzone=21,11 / fast_pskip=0 / chroma_qp_offset=-3 / threads=6 / lookahead_threads=1 / sliced_threads=0 / nr=0 / decimate=0 / interlaced=0 / bluray_compat=0 / constrained_intra=0 / bframes=8 / b_pyramid=2 / b_adapt=2 / b_bias=0 / direct=3 / weightb=1 / open_gop=0 / weightp=2 / keyint=240 / keyint_min=23 / scenecut=40 / intra_refresh=0 / rc=2pass / mbtree=0 / bitrate=3500 / ratetol=1.0 / qcomp=0.60 / qpmin=0 / qpmax=69 / qpstep=4 / cplxblur=20.0 / qblur=0.5 / ip_ratio=1.40 / pb_ratio=1.30 / aq=1:1.00
Language : English
Default : Yes
Forced : No

Audio #1
ID : 2
Format : AC-3
Format/Info : Audio Coding 3
Mode extension : CM (complete main)
Codec ID : A_AC3
Duration : 1h 27mn
Bit rate mode : Constant
Bit rate : 384 Kbps
Channel(s) : 6 channels
Channel positions : Front: L C R, Side: L R, LFE
Sampling rate : 48.0 KHz
Bit depth : 16 bits
Compression mode : Lossy
Stream size : 240 MiB (9%)
Title : Многоголосый (Baibako)
Language : Russian
Default : Yes
Forced : Yes

Audio #2
ID : 3
Format : AC-3
Format/Info : Audio Coding 3
Mode extension : CM (complete main)
Codec ID : A_AC3
Duration : 1h 27mn
Bit rate mode : Constant
Bit rate : 448 Kbps
Channel(s) : 6 channels
Channel positions : Front: L C R, Side: L R, LFE
Sampling rate : 48.0 KHz
Bit depth : 16 bits
Compression mode : Lossy
Stream size : 280 MiB (10%)
Language : English
Default : No
Forced : No

Text
ID : 4
Format : UTF-8
Codec ID : S_TEXT/UTF8
Codec ID/Info : UTF-8 Plain Text
Language : English
Default : No
Forced : No

Menu
00:00:00.000 : :Chapter 01
00:06:15.625 : :Chapter 02
00:11:31.524 : :Chapter 03
00:14:13.602 : :Chapter 04
00:17:44.646 : :Chapter 05
00:22:35.520 : :Chapter 06
00:27:37.656 : :Chapter 07
00:32:33.117 : :Chapter 08
00:38:37.148 : :Chapter 09
00:45:01.657 : :Chapter 10
00:50:12.092 : :Chapter 11
00:53:54.522 : :Chapter 12
00:58:18.453 : :Chapter 13
01:02:21.738 : :Chapter 14
01:06:54.135 : :Chapter 15
01:11:02.258 : :Chapter 16
01:15:43.664 : :Chapter 17
01:21:14.035 : :Chapter 18
01:27:16.356 : :Chapter 19


Свернуть

Скриншоты
Изображение
Изображение
Изображение
Изображение
Свернуть
Не в сети
Профиль  
 Добавлено: 2014-04-03 18:44 (спустя 30 дней)
Top-releaser
Аватара пользователя
Стаж: 7 лет 4 месяца
Возраст: 38
Сообщений: 5348
Спасибок: 10073
Лайков: 2938
Не очень, так, на один раз одним глазом.....
Не в сети
Профиль  
Начать новую темуОтветить на тему  [ Сообщений: 2 ] 
Вы не можете начинать темы
Вы не можете отвечать на сообщения
Вы не можете редактировать свои сообщения
Вы не можете удалять свои сообщения