Правила форума

  • В этом разделе создание новых тем Запрещено.
  • Для создания новых тем пользуйтесь Корневым разделом DVD и HD фильмы.
Начать новую темуОтветить на тему  [ Сообщений: 4 ] 
Торрент файл
Размер: 2.56 GB • Зарегистрирован: 2 года 9 месяцев • Статус: T Временный релиз
Скачан: 25 раз • Желающих скачать: 0 • Поблагодарили: 10 раз
 Раздают: 0  |  0 KB/s  ]   Качают: 0  |  0 KB/s  ] 
 Полного источника не было 1 год 3 месяца 
Сообщения
 Добавлено: 2014-02-24 14:11
Модератор
Аватара пользователя
Стаж: 8 лет 2 месяца
Возраст: 30
Сообщений: 3200
Спасибок: 2960
Лайков: 206
Пуля / Bullet

«This time they messed with the wrong guy!»

Изображение


Название: Пуля
Оригинальное название: Bullet
Год выхода: 2014
Выпущено: США / Giant Ape Media, SC Films International
Продолжительность: 01:27:16
Озвучивание: Любительское (одноголосное) [qwerty]+Оригинал
Жанр: боевик, криминал
Режиссер: Ник Лион
В ролях: Дэнни Трехо, Торстен Фогс, Джонатан Бэнкс, Кайл Вильяловос, Ив Мауро, Шери ДеЯнг, Эрик Блоссом, Джералд Уэбб, Тинсел Кори, Эрик Этебари
О фильме: Пуля — это прозвище полицейского, для которого борьба с преступностью является смыслом его жизни. Однажды наркомафия похищает его внука, сама того не понимая, какие неприятности на себя навлекая. Пуля берет закон в свои руки и начинает вершить правосудие.

Дата мировой премьеры: 7 марта 2014
Дата российской премьеры: 29 мая 2014, «All Media»

Кодек: MPEG-4 AVC
Качество: BDRip 720p
Видео: 3500 Кбит/с, 1280x546, 23.976 кадр/с
Аудио #1: Русский (AC3, 6 ch, 256 Кбит/с) | Любительский одноголосый (qwerty)
Аудио #2: Английский (AC3, 6 ch, 448 Кбит/с)
Субтитры: Английские (отключаемые)

ИзображениеИзображениеИзображение
MediaInfo
Формат : Matroska
Версия формата : Version 4 / Version 2
Размер файла : 2,56 Гбайт
Продолжительность : 1 ч. 27 м.
Общий поток : 4204 Кбит/сек
Название фильма : = MediaClub = rip by Painter
Дата кодирования : UTC 2014-02-24 05:34:54
Программа кодирования : mkvmerge v6.6.0 ('The Edge Of The In Between') built on Dec 1 2013 17:55:00
Библиотека кодирования : libebml v1.3.0 + libmatroska v1.4.1

Видео
Идентификатор : 1
Формат : AVC
Формат/Информация : Advanced Video Codec
Профиль формата : High@L4.1
Параметр CABAC формата : Да
Параметр ReFrames формата : 9 кадров
Идентификатор кодека : V_MPEG4/ISO/AVC
Продолжительность : 1 ч. 27 м.
Битрейт : 3500 Кбит/сек
Ширина : 1280 пикселей
Высота : 546 пикселей
Соотношение сторон : 2,35:1
Режим частоты кадров : Постоянный
Частота кадров : 23,976 кадра/сек
Цветовое пространство : YUV
Субдискретизация насыщенности : 4:2:0
Битовая глубина : 8 бит
Тип развёртки : Прогрессивная
Бит/(Пиксели*Кадры) : 0.209
Размер потока : 2,08 Гбайт (81%)
Библиотека кодирования : x264 core 130 r2273 b3065e6
Настройки программы : cabac=1 / ref=9 / deblock=1:-3:-3 / analyse=0x3:0x133 / me=esa / subme=11 / psy=1 / psy_rd=1.05:0.20 / mixed_ref=1 / me_range=32 / chroma_me=1 / trellis=2 / 8x8dct=1 / cqm=0 / deadzone=21,11 / fast_pskip=0 / chroma_qp_offset=-3 / threads=6 / lookahead_threads=1 / sliced_threads=0 / nr=0 / decimate=0 / interlaced=0 / bluray_compat=0 / constrained_intra=0 / bframes=8 / b_pyramid=2 / b_adapt=2 / b_bias=0 / direct=3 / weightb=1 / open_gop=0 / weightp=2 / keyint=240 / keyint_min=23 / scenecut=40 / intra_refresh=0 / rc=2pass / mbtree=0 / bitrate=3500 / ratetol=1.0 / qcomp=0.60 / qpmin=0 / qpmax=69 / qpstep=4 / cplxblur=20.0 / qblur=0.5 / ip_ratio=1.40 / pb_ratio=1.30 / aq=1:1.00
Язык : English
Default : Да
Forced : Нет

Аудио #1
Идентификатор : 2
Формат : AC-3
Формат/Информация : Audio Coding 3
Расширение режима : CM (complete main)
Параметр Endianness формата : Big
Идентификатор кодека : A_AC3
Продолжительность : 1 ч. 27 м.
Вид битрейта : Постоянный
Битрейт : 256 Кбит/сек
Каналы : 2 канала
Расположение каналов : Front: L R
Частота : 44,1 КГц
Битовая глубина : 16 бит
Метод сжатия : С потерями
Размер потока : 160 Мбайт (6%)
Язык : Russian
Default : Да
Forced : Нет

Аудио #2
Идентификатор : 3
Формат : AC-3
Формат/Информация : Audio Coding 3
Расширение режима : CM (complete main)
Параметр Endianness формата : Big
Идентификатор кодека : A_AC3
Продолжительность : 1 ч. 27 м.
Вид битрейта : Постоянный
Битрейт : 448 Кбит/сек
Каналы : 6 каналов
Расположение каналов : Front: L C R, Side: L R, LFE
Частота : 48,0 КГц
Битовая глубина : 16 бит
Метод сжатия : С потерями
Размер потока : 280 Мбайт (11%)
Язык : English
Default : Нет
Forced : Нет

Текст
Идентификатор : 4
Формат : UTF-8
Идентификатор кодека : S_TEXT/UTF8
Идентификатор кодека/Информация : UTF-8 Plain Text
Язык : English
Default : Нет
Forced : Нет

Меню
00:00:00.000 : :Chapter 01
00:06:15.625 : :Chapter 02
00:11:31.524 : :Chapter 03
00:14:13.602 : :Chapter 04
00:17:44.646 : :Chapter 05
00:22:35.520 : :Chapter 06
00:27:37.656 : :Chapter 07
00:32:33.117 : :Chapter 08
00:38:37.148 : :Chapter 09
00:45:01.657 : :Chapter 10
00:50:12.092 : :Chapter 11
00:53:54.522 : :Chapter 12
00:58:18.453 : :Chapter 13
01:02:21.738 : :Chapter 14
01:06:54.135 : :Chapter 15
01:11:02.258 : :Chapter 16
01:15:43.664 : :Chapter 17
01:21:14.035 : :Chapter 18
01:27:16.356 : :Chapter 19
Свернуть
Скриншоты
Изображение
Изображение
Изображение
Изображение
Свернуть

Изображение
Изображение
_________________

ИзображениеПравила Создание релизов от А до Я


Последний раз редактировалось TooGooD 2014-02-25 12:56, всего редактировалось 1 раз.
 vitso нравится это.
Не в сети
Профиль  
 Добавлено: 2014-02-24 17:04 (спустя 2 часа 53 минуты)
Стаж: 8 лет
Сообщений: 15
Спасибок: 12
Лайков: 1
Пуля-дура, мачете тоже (не молодец)
 Alexsever нравится это.
Не в сети
Профиль  
 Добавлено: 2014-02-24 18:13 (спустя 1 час 8 минут)
Стаж: 6 лет
Сообщений: 219
Лайков: 7
:ne_znayu:
Не в сети
Профиль  
 Добавлено: 2014-02-24 23:52 (спустя 5 часов)
Аватара пользователя
Стаж: 8 лет 7 месяцев
Сообщений: 1702
Спасибок: 104
Лайков: 152
совсем отстой? :ne_ne: этот трехо только в трешах в последнее время... хотя почти всегда))))) :-D
Не в сети
Профиль  
Начать новую темуОтветить на тему  [ Сообщений: 4 ] 
Вы не можете начинать темы
Вы не можете отвечать на сообщения
Вы не можете редактировать свои сообщения
Вы не можете удалять свои сообщения