Правила форума

  • В этом разделе создание новых тем Запрещено.
  • Для создания новых тем пользуйтесь Корневым разделом DVD и HD фильмы.
Начать новую темуОтветить на тему  [ 1 сообщение ] 
Торрент файл
Размер: 4.11 GB • Зарегистрирован: 4 года 11 месяцев • Статус: Проверено
Скачан: 115 раз • Желающих скачать: 0 • Поблагодарили: 37 раз
 Раздают: 0  |  0 KB/s  ]   Качают: 0  |  0 KB/s  ] 
 Полного источника не было 3 года 2 месяца 
Сообщения
 Добавлено: 2011-12-12 23:45
Аватара пользователя
Стаж: 4 года 11 месяцев
Сообщений: 24
Спасибок: 357
Пункт назначения 5 / Final Destination 5

«Опасность ещё не была столь близка»

Изображение



Год выхода: 2011
Страна: США

Жанр: ужасы, триллер
Продолжительность: 01:31:49
Перевод: Дублированный [лицензия]

Режиссер: Стивен Куэйл
Сценарий: Эрик Хайссерер, Джеффри Реддик
Продюсер: Крэйг Перри, Уоррен Зайд, Ричард Бренер
Оператор: Брайан Пирсон
Композитор: Брайан Тайлер

В ролях: Николас Д’Агосто, Эмма Белл, Майлз Фишер, Эллен Ро, Жаклин МакИннес Вуд, П.Дж. Бирн, Арлен Эскарпета, Дэвид Кокнер, Кортни Б. Вэнс, Тони Тодд

Описание: Проходит двенадцать лет после взрыва авиарейса N 180. У Сэма Лоутона происходит жуткое видение: подвесной мост, на котором он находится со своими друзьями, рушится, и многие люди, включая его самого, погибают. Сэм начинает паниковать и уговаривает своих друзей и ещё нескольких «счастливчиков» уйти с моста. И как раз вовремя: как и предвидел Сэм, мост рушится на их глазах и множество людей погибает. Однако Сэм и его девушка Молли понимают, что смерть дала им лишь отсрочку, так как выжившие начинают погибать один за другим. Он должен понять, как обманув смерть однажды, обмануть её ещё раз, прежде чем настанет его очередь.

Изображение

Pаздача группы:Изображение

Бюджет: $40 000 000
Cборы в США: $42 587 643
Cборы в мире: + $115 300 000 = $157 887 643
Cборы в России: $19 257 933

Качество: BDRip 720p R5
Формат: Mkv

Видео: MPEG4 Video (H264) 1280x534 23.98fps 5 187 Kbps
Аудио 1: Dolby AC3 48000Hz 6ch 448 Kbps
Аудио 2: Dolby AC3 48000Hz 6ch 640 Kbps
Subtitle: Utf-8

Изображение

MediaInfo
General
Unique ID : 211359494169893133051426823216357293842 (0x9F025B9E5DDE488C909B6F6877E9BF12)
Complete name : E:\Download\Punkt.naznachenija.5.DVD_RG(720p).mkv
Format : Matroska
Format version : Version 2
File size : 4.11 GiB
Duration : 1h 31mn
Overall bit rate : 6 402 Kbps
Movie name : UNIONGANG.TV -TVB-
Encoded date : UTC 2011-12-12 19:20:55
Writing application : mkvmerge v5.0.1 ('Es ist Sommer') built on Oct 9 2011 11:55:43
Writing library : libebml v1.2.2 + libmatroska v1.3.0

Video
ID : 1
Format : AVC
Format/Info : Advanced Video Codec
Format profile : High@L4.1
Format settings, CABAC : Yes
Format settings, ReFrames : 12 frames
Codec ID : V_MPEG4/ISO/AVC
Duration : 1h 31mn
Bit rate : 5 187 Kbps
Width : 1 280 pixels
Height : 534 pixels
Display aspect ratio : 2.40:1
Frame rate : 23.976 fps
Color space : YUV
Chroma subsampling : 4:2:0
Bit depth : 8 bits
Scan type : Progressive
Bits/(Pixel*Frame) : 0.316
Stream size : 3.33 GiB (81%)
Title : EbP
Writing library : x264 core 120 r2120 0c7dab9
Encoding settings : cabac=1 / ref=12 / deblock=1:-3:-3 / analyse=0x3:0x113 / me=esa / subme=10 / psy=1 / psy_rd=0.95:0.00 / mixed_ref=1 / me_range=24 / chroma_me=1 / trellis=2 / 8x8dct=1 / cqm=0 / deadzone=21,11 / fast_pskip=0 / chroma_qp_offset=-2 / threads=6 / sliced_threads=0 / nr=0 / decimate=0 / interlaced=0 / bluray_compat=0 / constrained_intra=0 / bframes=7 / b_pyramid=2 / b_adapt=2 / b_bias=0 / direct=3 / weightb=1 / open_gop=0 / weightp=2 / keyint=250 / keyint_min=23 / scenecut=40 / intra_refresh=0 / rc=crf / mbtree=0 / crf=15.0 / qcomp=0.60 / qpmin=0 / qpmax=69 / qpstep=4 / ip_ratio=1.40 / pb_ratio=1.30 / aq=1:0.80
Language : English
Default : Yes
Forced : No

Audio #1
ID : 2
Format : AC-3
Format/Info : Audio Coding 3
Mode extension : CM (complete main)
Codec ID : A_AC3
Duration : 1h 31mn
Bit rate mode : Constant
Bit rate : 448 Kbps
Channel(s) : 6 channels
Channel positions : Front: L C R, Side: L R, LFE
Sampling rate : 48.0 KHz
Bit depth : 16 bits
Compression mode : Lossy
Delay relative to video : 24ms
Stream size : 294 MiB (7%)
Title : Dub
Language : Russian
Default : Yes
Forced : No

Audio #2
ID : 3
Format : AC-3
Format/Info : Audio Coding 3
Mode extension : CM (complete main)
Codec ID : A_AC3
Duration : 1h 31mn
Bit rate mode : Constant
Bit rate : 640 Kbps
Channel(s) : 6 channels
Channel positions : Front: L C R, Side: L R, LFE
Sampling rate : 48.0 KHz
Bit depth : 16 bits
Compression mode : Lossy
Stream size : 420 MiB (10%)
Language : English
Default : No
Forced : No

Text #1
ID : 4
Format : UTF-8
Codec ID : S_TEXT/UTF8
Codec ID/Info : UTF-8 Plain Text
Language : Russian
Default : No
Forced : No

Text #2
ID : 5
Format : UTF-8
Codec ID : S_TEXT/UTF8
Codec ID/Info : UTF-8 Plain Text
Language : English
Default : No
Forced : No

Menu
00:00:00.000 : en:Chapter 01
00:09:51.341 : en:Chapter 02
00:20:22.763 : en:Chapter 03
00:30:36.543 : en:Chapter 04
00:40:56.996 : en:Chapter 05
00:51:19.076 : en:Chapter 06
01:00:55.777 : en:Chapter 07
01:09:02.847 : en:Chapter 08
01:22:35.576 : en:Chapter 09
01:26:23.303 : en:Chapter 10


Свернуть
Скриншоты
Изображение
Изображение
Изображение
Изображение
Свернуть
Не в сети
Профиль  
Начать новую темуОтветить на тему  [ 1 сообщение ] 
Вы не можете начинать темы
Вы не можете отвечать на сообщения
Вы не можете редактировать свои сообщения
Вы не можете удалять свои сообщения