Правила форума

  • В этом разделе создание новых тем Запрещено.
  • Для создания новых тем пользуйтесь Корневым разделом DVD и HD фильмы.
Начать новую темуОтветить на тему  [ Сообщений: 2 ] 
Торрент файл
Размер: 21.57 GB • Зарегистрирован: 5 лет 1 месяц • Статус: Проверено
Скачан: 105 раз • Желающих скачать: 0 • Поблагодарили: 21 раз
 Раздают: 0  |  0 KB/s  ]   Качают: 0  |  0 KB/s  ] 
 Полного источника не было 1 год 4 месяца 
Сообщения
 Добавлено: 2011-10-16 11:02
Top-seeder
Аватара пользователя
Стаж: 9 лет
Сообщений: 1399
Спасибок: 28652
Лайков: 8
Пункт Назначения. Квадрология / Final Destination. Quadrilogy

ИзображениеИзображение



Год выпуска: 2000 / 2003 / 2006 / 2009
Страна: США, Канада, Германия
Жанр: Мистика, триллер, ужасы
Продолжительность: 01:38:01 / 01:30:09 / 01:32:48 / 01:21:46
Перевод: Профессиональный (полное дублирование)+Профессиональный (многоголосый, закадровый) + Профессиональный (Одноголосный)
Режиссер: Джеймс Вонг / Дэвид Р. Эллис / Джеймс Вонг

В ролях: Девон Сава, Эли Лартер, Керр Смит, Кристен Клоук, Дэниэл Робак, Роджер Гуэнвёр Смит, Чэд Донелла, Шонн Уильям Скотт, Тони Тодд / Эли Лартер, А.Дж. Кук, Майкл Лэндис, Дэвид Петкау, Джеймс Кирк, Линда Бойд, Киган Коннор Трейси, Джонатан Черри / Мэри Элизабет Уинстэд, Райан Мерриман, Крис Лемке, Алекс Джонсон, Сэм Истон, Джесси Мосс, Джина Холден, Тексас Бэттл, Челан Симмонс.

Качество: BDRip
Формат: MKV
Видео кодек: H.264
Аудио кодек: AC3, DTS
Видео: 1280x720, 1280x532 (4-ая часть), 23,976 fps, x264 (5500Kbps / 5000Kbps / 4800Kbps / 6140 Kbps)

Пункт Назначения / Final Destination


«Are you ready to match wits with the Grim Reaper»


Описание: Алекс летит развлекаться со всем классом в Париж на 10 дней. Отец говорит, что детство кончилось. В аэропорту он узнает, что время вылета совпадает с его днем рождения. Потом повинуясь плохому предчувствию Алекс покидает самолет вместе с еще семью людьми. И тут взрывается их самолет…

Но позже оставшиеся в живых пассажиры гибнут один за другим. И Алекс понимает: смерть не обманешь — это только отсрочка…

Аудио 1: Русский 48,0 КГц, AC3, 6ch, 448Kbps |Дубляж|
Аудио 2: Русский 48,0 КГц, AC3, 6ch, 384Kbps |Многоголосный, Позитив|
Аудио 3: Русский 48,0 КГц, DTS, 6ch, 1536Kbps |Одноголосный, Гаврилов|
Аудио 4: Английский 48,0 КГц, DTS, 6ch, 1536Kbps |Оригинал|
Аудио 5: Английский 48,0 КГц, OGG, 2ch, 80Kbps |Комментарии №1|
Аудио 6: Английский 48,0 КГц, OGG, 2ch, 80Kbps |Комментарии №2|
Cубтитры: English

MI
Общее
Уникальный идентификатор : 190464696892542107033311721111817684523 (0x8F4A2A9340B3BA0F82673BC0F9A6062B)
Полное имя : D:\Закачки\Final.Destination.Quadrilogy\Final.Destination.2000.720p.BluRay.x264.mkv
Формат : Matroska
Размер файла : 6,56 Гбайт
Продолжительность : 1 ч. 38 м.
Общий поток : 9578 Кбит/сек
Дата кодирования : UTC 2009-08-26 19:44:54
Программа кодирования : mkvmerge v2.9.7 ('Tenderness') built on Jul 1 2009 18:43:35
Библиотека кодирования : libebml v0.7.7 + libmatroska v0.8.1

Видео
Идентификатор : 1
Формат : AVC
Формат/Информация : Advanced Video Codec
Профиль формата : High@L4.1
Параметр CABAC формата : Да
Параметр ReFrames формата : 6 кадров
Идентификатор кодека : V_MPEG4/ISO/AVC
Продолжительность : 1 ч. 38 м.
Битрейт : 5575 Кбит/сек
Ширина : 1280 пикс.
Высота : 720 пикс.
Соотношение сторон : 16:9
Частота кадров : 23,976 кадр/сек
Цветовое пространство : YUV
Подвыборка цветности : 4:2:0
Битовая глубина : 8 бит
Тип развёртки : Прогрессивная
Бит/(Пиксели*Кадры) : 0.252
Размер потока : 3,68 Гбайт (56%)
Библиотека кодирования : x264 core 67 r1140M 37424f8
Настройки программы : cabac=1 / ref=6 / deblock=1:-3:-3 / analyse=0x3:0x133 / me=umh / subme=9 / psy_rd=1.1:0.0 / mixed_ref=1 / me_range=32 / chroma_me=1 / trellis=0 / 8x8dct=1 / cqm=2 / deadzone=6,4 / chroma_qp_offset=-2 / threads=6 / nr=0 / decimate=1 / mbaff=0 / bframes=16 / b_pyramid=0 / b_adapt=1 / b_bias=0 / direct=1 / wpredb=1 / keyint=250 / keyint_min=25 / scenecut=40 / rc=2pass / bitrate=5575 / ratetol=1.0 / qcomp=0.60 / qpmin=10 / qpmax=51 / qpstep=4 / cplxblur=20.0 / qblur=0.5 / ip_ratio=1.40 / pb_ratio=1.30 / aq=1:0.70
Язык : English

Аудио #1
Идентификатор : 2
Формат : AC-3
Формат/Информация : Audio Coding 3
Расширение режима : CM (complete main)
Идентификатор кодека : A_AC3
Продолжительность : 1 ч. 38 м.
Вид битрейта : Постоянный
Битрейт : 448 Кбит/сек
Каналы : 6 каналов
Расположение каналов : Front: L C R, Side: L R, LFE
Частота : 48,0 КГц
Битовая глубина : 16 бит
Метод сжатия : С потерями
Размер потока : 314 Мбайт (5%)
Заголовок : Проф. дубляж (AC3 448)
Язык : Russian

Аудио #2
Идентификатор : 3
Формат : AC-3
Формат/Информация : Audio Coding 3
Расширение режима : CM (complete main)
Идентификатор кодека : A_AC3
Продолжительность : 1 ч. 38 м.
Вид битрейта : Постоянный
Битрейт : 384 Кбит/сек
Каналы : 6 каналов
Расположение каналов : Front: L C R, Side: L R, LFE
Частота : 48,0 КГц
Битовая глубина : 16 бит
Метод сжатия : С потерями
Размер потока : 269 Мбайт (4%)
Заголовок : Многоголосный (AC3 384)
Язык : Russian

Аудио #3
Идентификатор : 4
Формат : DTS
Формат/Информация : Digital Theater Systems
Идентификатор кодека : A_DTS
Продолжительность : 1 ч. 38 м.
Вид битрейта : Постоянный
Битрейт : 1510 Кбит/сек
Каналы : 6 каналов
Расположение каналов : Front: L C R, Side: L R, LFE
Частота : 48,0 КГц
Битовая глубина : 24 бит
Метод сжатия : С потерями
Размер потока : 1,03 Гбайт (16%)
Заголовок : Одноголосный (DTS 1536)
Язык : Russian

Аудио #4
Идентификатор : 5
Формат : DTS
Формат/Информация : Digital Theater Systems
Идентификатор кодека : A_DTS
Продолжительность : 1 ч. 38 м.
Вид битрейта : Постоянный
Битрейт : 1510 Кбит/сек
Каналы : 6 каналов
Расположение каналов : Front: L C R, Side: L R, LFE
Частота : 48,0 КГц
Битовая глубина : 24 бит
Метод сжатия : С потерями
Размер потока : 1,03 Гбайт (16%)
Язык : English

Аудио #5
Идентификатор : 6
Формат : Vorbis
Параметр Floor формата : 1
Идентификатор кодека : A_VORBIS
Продолжительность : 1 ч. 38 м.
Вид битрейта : Постоянный
Битрейт : 80,0 Кбит/сек
Каналы : 2 канала
Частота : 48,0 КГц
Метод сжатия : С потерями
Размер потока : 56,1 Мбайт (1%)
Заголовок : Commentary #1
Библиотека кодирования : libVorbis 1.2 (UTC 2007-06-22)
Язык : English

Аудио #6
Идентификатор : 7
Формат : Vorbis
Параметр Floor формата : 1
Идентификатор кодека : A_VORBIS
Продолжительность : 1 ч. 38 м.
Вид битрейта : Постоянный
Битрейт : 80,0 Кбит/сек
Каналы : 2 канала
Частота : 48,0 КГц
Метод сжатия : С потерями
Размер потока : 56,1 Мбайт (1%)
Заголовок : Commentary #2
Библиотека кодирования : libVorbis 1.2 (UTC 2007-06-22)
Язык : English

Текст
Идентификатор : 8
Формат : UTF-8
Идентификатор кодека : S_TEXT/UTF8
Идентификатор кодека/Информация : UTF-8 Plain Text
Язык : English

Свернуть

Скриншоты
ИзображениеИзображениеИзображениеИзображение
Свернуть


Пункт Назначения 2 / Final Destination 2

«Смерть нельзя обмануть дважды.....»


Описание: Решив провести уикэнд с друзьями подальше от дома, Кимберли Корман становится невольным свидетелем жуткой автокатастрофы! На скоростной магистрали грузовик теряет управление, а вместе с ним и груз, что приводит к серии столкновений автомобилей и множеству жертв, среди которых она сама. Секунду спустя Кимберли снова чувствует биение своего сердца: она жива и по-прежнему за рулем машины. Видение? А может быть, предупреждение?

Однако теперь и Кимберли, и водители, чьи машины не смогли выехать из-за нее к своей смерти, обречены — старуха с косой отказывается вычеркивать их из своего списка…

Аудио 1: Русский 48,0 КГц, AC3, 6ch, 448Kbps |Дубляж|
Аудио 2: Русский 48,0 КГц, AC3, 6ch, 448Kbps |Многоголосный|
Аудио 3: Русский 48,0 КГц, AC3, 6ch, 448Kbps |Одноголосный, Медведев|
Аудио 4: Английский 48,0 КГц, DTS, 6ch, 1536Kbps |Оригинал|
Cубтитры: Russian, English

MI
Общее
Уникальный идентификатор : 188084840637408457521418960786580115920 (0x8D7FD29A4C161EBDBF388667911111D0)
Полное имя : D:\Закачки\Final.Destination.Quadrilogy\Final.Destination.2.2003.720p.BluRay.x264.mkv
Формат : Matroska
Размер файла : 5,20 Гбайт
Продолжительность : 1 ч. 30 м.
Общий поток : 8260 Кбит/сек
Дата кодирования : UTC 2009-08-26 20:15:41
Программа кодирования : mkvmerge v2.9.7 ('Tenderness') built on Jul 1 2009 18:43:35
Библиотека кодирования : libebml v0.7.7 + libmatroska v0.8.1

Видео
Идентификатор : 1
Формат : AVC
Формат/Информация : Advanced Video Codec
Профиль формата : High@L4.1
Параметр CABAC формата : Да
Параметр ReFrames формата : 6 кадров
Идентификатор кодека : V_MPEG4/ISO/AVC
Продолжительность : 1 ч. 30 м.
Битрейт : 5405 Кбит/сек
Ширина : 1280 пикс.
Высота : 720 пикс.
Соотношение сторон : 16:9
Частота кадров : 23,976 кадр/сек
Цветовое пространство : YUV
Подвыборка цветности : 4:2:0
Битовая глубина : 8 бит
Тип развёртки : Прогрессивная
Бит/(Пиксели*Кадры) : 0.245
Размер потока : 3,30 Гбайт (63%)
Библиотека кодирования : x264 core 68 r1195M 5d75a9b
Настройки программы : cabac=1 / ref=6 / deblock=1:-3:-3 / analyse=0x3:0x113 / me=umh / subme=10 / psy_rd=1.1:0.0 / mixed_ref=1 / me_range=64 / chroma_me=1 / trellis=2 / 8x8dct=1 / cqm=0 / deadzone=21,11 / chroma_qp_offset=-2 / threads=6 / nr=0 / decimate=1 / mbaff=0 / bframes=8 / b_pyramid=1 / b_adapt=2 / b_bias=0 / direct=3 / wpredb=1 / keyint=250 / keyint_min=25 / scenecut=40 / rc=2pass / bitrate=5405 / ratetol=1.0 / qcomp=0.60 / qpmin=10 / qpmax=51 / qpstep=4 / cplxblur=20.0 / qblur=0.5 / ip_ratio=1.40 / pb_ratio=1.30 / aq=1:0.80
Язык : English

Аудио #1
Идентификатор : 2
Формат : AC-3
Формат/Информация : Audio Coding 3
Расширение режима : CM (complete main)
Идентификатор кодека : A_AC3
Продолжительность : 1 ч. 30 м.
Вид битрейта : Постоянный
Битрейт : 448 Кбит/сек
Каналы : 6 каналов
Расположение каналов : Front: L C R, Side: L R, LFE
Частота : 48,0 КГц
Битовая глубина : 16 бит
Метод сжатия : С потерями
Размер потока : 289 Мбайт (5%)
Заголовок : Проф. дубляж (AC3 448)
Язык : Russian

Аудио #2
Идентификатор : 3
Формат : AC-3
Формат/Информация : Audio Coding 3
Расширение режима : CM (complete main)
Идентификатор кодека : A_AC3
Продолжительность : 1 ч. 30 м.
Вид битрейта : Постоянный
Битрейт : 448 Кбит/сек
Каналы : 6 каналов
Расположение каналов : Front: L C R, Side: L R, LFE
Частота : 48,0 КГц
Битовая глубина : 16 бит
Метод сжатия : С потерями
Размер потока : 289 Мбайт (5%)
Заголовок : Многоголосный (AC3 448)
Язык : Russian

Аудио #3
Идентификатор : 4
Формат : AC-3
Формат/Информация : Audio Coding 3
Расширение режима : CM (complete main)
Идентификатор кодека : A_AC3
Продолжительность : 1 ч. 30 м.
Вид битрейта : Постоянный
Битрейт : 448 Кбит/сек
Каналы : 6 каналов
Расположение каналов : Front: L C R, Side: L R, LFE
Частота : 48,0 КГц
Битовая глубина : 16 бит
Метод сжатия : С потерями
Размер потока : 289 Мбайт (5%)
Заголовок : Одноголосный (448)
Язык : Russian

Аудио #4
Идентификатор : 5
Формат : DTS
Формат/Информация : Digital Theater Systems
Идентификатор кодека : A_DTS
Продолжительность : 1 ч. 30 м.
Вид битрейта : Постоянный
Битрейт : 1510 Кбит/сек
Каналы : 6 каналов
Расположение каналов : Front: L C R, Side: L R, LFE
Частота : 48,0 КГц
Битовая глубина : 24 бит
Метод сжатия : С потерями
Размер потока : 974 Мбайт (18%)
Язык : English

Текст #1
Идентификатор : 6
Формат : UTF-8
Идентификатор кодека : S_TEXT/UTF8
Идентификатор кодека/Информация : UTF-8 Plain Text
Язык : Russian

Текст #2
Идентификатор : 7
Формат : UTF-8
Идентификатор кодека : S_TEXT/UTF8
Идентификатор кодека/Информация : UTF-8 Plain Text
Язык : English

Свернуть

Скриншоты
ИзображениеИзображениеИзображениеИзображение
Свернуть


Пункт Назначения 3 / Final Destination 3

«Прокатись с ветерком... и со Смертью!»


Описание: Главная героиня фильма — старшеклассница Уэнди Крисченсен, у которой однажды возникло предчувствие, что она и ее друзья станут жертвами несчастного случая, который произойдет на «американских горках».

Когда же самые страшные опасения Уэнди подтверждаются, то те, кто сумел все-таки обмануть смерть и выжить, оказываются вынужденными расплачиваться за то, что изменили свою судьбу…

Аудио 1: Русский 48,0 КГц, AC3, 6ch, 384Kbps |Дубляж|
Аудио 2: Русский 48,0 КГц, AC3, 6ch, 448Kbps |Многоголосный|
Аудио 3: Русский 48,0 КГц, AC3, 6ch, 448Kbps |Двухголосный, Гланц и Королева|
Аудио 4: Английский 48,0 КГц, DTS, 6ch, 1536Kbps |Оригинал|
Cубтитры: Russian, English

MI
Общее
Уникальный идентификатор : 230530083350348812836671143014793520149 (0xAD6E7AA3B80A0EB1B12E9FA3B050A415)
Полное имя : D:\Закачки\Final.Destination.Quadrilogy\Final.Destination.3.2006.720p.BluRay.x264.mkv
Формат : Matroska
Размер файла : 5,18 Гбайт
Продолжительность : 1 ч. 32 м.
Общий поток : 7997 Кбит/сек
Дата кодирования : UTC 2009-08-26 20:43:27
Программа кодирования : mkvmerge v2.9.7 ('Tenderness') built on Jul 1 2009 18:43:35
Библиотека кодирования : libebml v0.7.7 + libmatroska v0.8.1

Видео
Идентификатор : 1
Формат : AVC
Формат/Информация : Advanced Video Codec
Профиль формата : High@L4.1
Параметр CABAC формата : Да
Параметр ReFrames формата : 6 кадров
Идентификатор кодека : V_MPEG4/ISO/AVC
Продолжительность : 1 ч. 32 м.
Битрейт : 5207 Кбит/сек
Ширина : 1280 пикс.
Высота : 720 пикс.
Соотношение сторон : 16:9
Частота кадров : 23,976 кадр/сек
Цветовое пространство : YUV
Подвыборка цветности : 4:2:0
Битовая глубина : 8 бит
Тип развёртки : Прогрессивная
Бит/(Пиксели*Кадры) : 0.236
Размер потока : 3,27 Гбайт (63%)
Библиотека кодирования : x264 core 68 r1195M 5d75a9b
Настройки программы : cabac=1 / ref=6 / deblock=1:-3:-3 / analyse=0x3:0x113 / me=umh / subme=10 / psy_rd=1.2:0.0 / mixed_ref=1 / me_range=64 / chroma_me=1 / trellis=2 / 8x8dct=1 / cqm=0 / deadzone=21,11 / chroma_qp_offset=-2 / threads=6 / nr=0 / decimate=1 / mbaff=0 / bframes=8 / b_pyramid=1 / b_adapt=2 / b_bias=0 / direct=3 / wpredb=1 / keyint=250 / keyint_min=25 / scenecut=40 / rc=2pass / bitrate=5207 / ratetol=1.0 / qcomp=0.60 / qpmin=10 / qpmax=51 / qpstep=4 / cplxblur=20.0 / qblur=0.5 / ip_ratio=1.40 / pb_ratio=1.30 / aq=1:0.60
Язык : English

Аудио #1
Идентификатор : 2
Формат : AC-3
Формат/Информация : Audio Coding 3
Расширение режима : CM (complete main)
Идентификатор кодека : A_AC3
Продолжительность : 1 ч. 32 м.
Вид битрейта : Постоянный
Битрейт : 384 Кбит/сек
Каналы : 6 каналов
Расположение каналов : Front: L C R, Side: L R, LFE
Частота : 48,0 КГц
Битовая глубина : 16 бит
Метод сжатия : С потерями
Размер потока : 255 Мбайт (5%)
Заголовок : Проф. дубляж (AC3 384)
Язык : Russian

Аудио #2
Идентификатор : 3
Формат : AC-3
Формат/Информация : Audio Coding 3
Расширение режима : CM (complete main)
Идентификатор кодека : A_AC3
Продолжительность : 1 ч. 32 м.
Вид битрейта : Постоянный
Битрейт : 448 Кбит/сек
Каналы : 6 каналов
Расположение каналов : Front: L C R, Side: L R, LFE
Частота : 48,0 КГц
Битовая глубина : 16 бит
Метод сжатия : С потерями
Размер потока : 297 Мбайт (6%)
Заголовок : Многоголосный (AC3 448)
Язык : Russian

Аудио #3
Идентификатор : 4
Формат : AC-3
Формат/Информация : Audio Coding 3
Расширение режима : CM (complete main)
Идентификатор кодека : A_AC3
Продолжительность : 1 ч. 32 м.
Вид битрейта : Постоянный
Битрейт : 448 Кбит/сек
Каналы : 6 каналов
Расположение каналов : Front: L C R, Side: L R, LFE
Частота : 48,0 КГц
Битовая глубина : 16 бит
Метод сжатия : С потерями
Размер потока : 297 Мбайт (6%)
Заголовок : Двухголосный (AC3 448)
Язык : Russian

Аудио #4
Идентификатор : 5
Формат : DTS
Формат/Информация : Digital Theater Systems
Идентификатор кодека : A_DTS
Продолжительность : 1 ч. 32 м.
Вид битрейта : Постоянный
Битрейт : 1510 Кбит/сек
Каналы : 6 каналов
Расположение каналов : Front: L C R, Side: L R, LFE
Частота : 48,0 КГц
Битовая глубина : 24 бит
Метод сжатия : С потерями
Размер потока : 1002 Мбайт (19%)
Язык : English

Текст #1
Идентификатор : 6
Формат : UTF-8
Идентификатор кодека : S_TEXT/UTF8
Идентификатор кодека/Информация : UTF-8 Plain Text
Язык : Russian

Текст #2
Идентификатор : 7
Формат : UTF-8
Идентификатор кодека : S_TEXT/UTF8
Идентификатор кодека/Информация : UTF-8 Plain Text
Язык : English

Свернуть

Скриншоты
ИзображениеИзображениеИзображениеИзображение
Свернуть


Пункт Назначения 4 / Final Destination 4

«Упокой их, Господи... По частям»


Описание: История на этот раз вращается вокруг Ника О`Бэннона, к молодому человеку приходит видение — на автогонках произойдет ужасная трагедия, жертвами которой станут его друзья и он сам. Как и прежде группе счастливчиков, благодаря Нику, удается выжить, но смерть вовсе не спешит вычеркивать их из своего списка.

Аудио 1: Русский 48,0 КГц, AC3, 6ch, 448Kbps |Дубляж|
Аудио 2: Английский 48,0 КГц, DTS, 6ch, 1536Kbps |Оригинал|
Cубтитры: Russian (надписи), Russian, English

MI
Общее
Уникальный идентификатор : 223080358407429087979465164975975620449 (0xA7D3B6D78666267781335B0DB3C6DF61)
Полное имя : D:\Закачки\Final.Destination.Quadrilogy\The.Final.Destination.2009.720p.BluRay.x264-DON.mkv
Формат : Matroska
Размер файла : 4,63 Гбайт
Продолжительность : 1 ч. 21 м.
Общий поток : 8092 Кбит/сек
Дата кодирования : UTC 2010-01-16 20:43:37
Программа кодирования : mkvmerge v3.0.0 ('Hang up your Hang-Ups') built on Dec 12 2009 15:20:35
Библиотека кодирования : libebml v0.7.9 + libmatroska v0.8.1

Видео
Идентификатор : 1
Формат : AVC
Формат/Информация : Advanced Video Codec
Профиль формата : High@L4.1
Параметр CABAC формата : Да
Параметр ReFrames формата : 5 кадров
Идентификатор кодека : V_MPEG4/ISO/AVC
Продолжительность : 1 ч. 21 м.
Битрейт : 6140 Кбит/сек
Ширина : 1280 пикс.
Высота : 532 пикс.
Соотношение сторон : 2,40:1
Частота кадров : 23,976 кадр/сек
Цветовое пространство : YUV
Подвыборка цветности : 4:2:0
Битовая глубина : 8 бит
Тип развёртки : Прогрессивная
Бит/(Пиксели*Кадры) : 0.376
Размер потока : 3,41 Гбайт (74%)
Заголовок : The Final Destination (2009)
Библиотека кодирования : x264 core 80 r1376M 3feaec2
Настройки программы : cabac=1 / ref=5 / deblock=1:-2:-2 / analyse=0x3:0x113 / me=umh / subme=10 / psy=1 / psy_rd=0.9:0.0 / mixed_ref=1 / me_range=64 / chroma_me=1 / trellis=2 / 8x8dct=1 / cqm=0 / deadzone=21,11 / fast_pskip=0 / chroma_qp_offset=-2 / threads=6 / sliced_threads=0 / nr=0 / decimate=1 / mbaff=0 / constrained_intra=0 / bframes=6 / b_pyramid=0 / b_adapt=2 / b_bias=0 / direct=3 / wpredb=1 / wpredp=2 / keyint=250 / keyint_min=25 / scenecut=40 / rc=2pass / mbtree=0 / bitrate=6140 / ratetol=1.0 / qcomp=0.60 / qpmin=10 / qpmax=51 / qpstep=4 / cplxblur=20.0 / qblur=0.5 / ip_ratio=1.40 / pb_ratio=1.30 / aq=1:0.80
Язык : English

Аудио #1
Идентификатор : 2
Формат : AC-3
Формат/Информация : Audio Coding 3
Расширение режима : CM (complete main)
Идентификатор кодека : A_AC3
Продолжительность : 1 ч. 21 м.
Вид битрейта : Постоянный
Битрейт : 448 Кбит/сек
Каналы : 6 каналов
Расположение каналов : Front: L C R, Side: L R, LFE
Частота : 48,0 КГц
Битовая глубина : 16 бит
Метод сжатия : С потерями
Размер потока : 262 Мбайт (6%)
Заголовок : DD 5.1 - 448 kbps
Язык : Russian

Аудио #2
Идентификатор : 3
Формат : DTS
Формат/Информация : Digital Theater Systems
Идентификатор кодека : A_DTS
Продолжительность : 1 ч. 21 м.
Вид битрейта : Постоянный
Битрейт : 1510 Кбит/сек
Каналы : 6 каналов
Расположение каналов : Front: L C R, Side: L R, LFE
Частота : 48,0 КГц
Битовая глубина : 24 бит
Метод сжатия : С потерями
Размер потока : 884 Мбайт (19%)
Заголовок : DTS 5.1 1536kbps
Язык : English

Текст #1
Идентификатор : 4
Формат : UTF-8
Идентификатор кодека : S_TEXT/UTF8
Идентификатор кодека/Информация : UTF-8 Plain Text
Заголовок : Forced
Язык : Russian

Текст #2
Идентификатор : 5
Формат : UTF-8
Идентификатор кодека : S_TEXT/UTF8
Идентификатор кодека/Информация : UTF-8 Plain Text
Язык : Russian

Текст #3
Идентификатор : 6
Формат : UTF-8
Идентификатор кодека : S_TEXT/UTF8
Идентификатор кодека/Информация : UTF-8 Plain Text
Язык : English

Свернуть

Скриншоты
ИзображениеИзображениеИзображениеИзображение
Свернуть
Не в сети
Профиль  
 Добавлено: 2011-12-20 13:43 (спустя 2 месяца 4 дня)
Стаж: 5 лет 8 месяцев
Сообщений: 4
добавьте скорости плиз))
Не в сети
Профиль  
Начать новую темуОтветить на тему  [ Сообщений: 2 ] 
Вы не можете начинать темы
Вы не можете отвечать на сообщения
Вы не можете редактировать свои сообщения
Вы не можете удалять свои сообщения