Правила форума

  • В этом разделе создание новых тем Запрещено.
  • Для создания новых тем пользуйтесь Корневым разделом DVD и HD фильмы.
Начать новую темуОтветить на тему  [ Сообщений: 3 ] 
Торрент файл
Размер: 18.86 GB • Зарегистрирован: 5 лет 9 месяцев • Статус: Проверено
Скачан: 33 раза • Желающих скачать: 0 • Поблагодарили: 6 раз
 Раздают: 0  |  0 KB/s  ]   Качают: 0  |  0 KB/s  ] 
 Полного источника не было 2 месяца 28 дней 
Сообщения
 Добавлено: 2011-02-19 18:42
Инквизитор
Аватара пользователя
Стаж: 8 лет 9 месяцев
Сообщений: 3753
Спасибок: 28360
Лайков: 9
Изображение

Путь Карлито / Carlito's Way


Год выпуска: 1993
Страна: США
Жанр: триллер, драма, криминал
Продолжительность: 02:24:35
Перевод: Профессиональный (многоголосый, закадровый) R5
Профессиональный (многоголосый, закадровый) (Позитив-Мультимедиа)
Профессиональный (двуголосый, закадровый) (П. Гланц и И. Королёва)
Профессиональный (одноголосый, закадровый) (А.Гаврилов)

Режиссер: Брайан Де Пальма
Сценарий: Эдвин Торрес, Дэвид Кепп
Продюсер: Мартин Брегман, Майкл Скотт Брегман, Уилли Бар, Ортвин Фреймат, Джудит Стивенс
Оператор: Стивен Х. Бёрум
Композитор: Джеллибин Бенитез, Дэвид Фостер, Кенни Гэмбл, Бэрри Гибб, Морис Гибб
В ролях: Аль Пачино (Carlito 'Charlie' Brigante), Шон Пенн (David Kleinfeld), Пенелопа Энн Миллер (Gail), Джон Легуизамо (Benny Blanco), Ингрид Роджерс (Steffie), Луис Гузман (Pachanga), Джеймс Ребхорн (Dist. Atty. Norwalk), Джозеф Сираво (Vincent 'Vinnie' Taglialucci), Вигго Мортенсен (Lalin), Ричард Форонджи (Pete Amadesso), Хорхе Порсель (Saso), Фрэнк Минуччи (Tony Taglialucci)
Описание: 70-е годы. Крупный наркоделец Карлито Бриганте вышел из тюрьмы, где отбыл пять лет. Теперь возвращаясь в испанский квартал Нью-Йорка к любимой женщине, он хочет все бросить и начать честную жизнь. Однако криминальное прошлое и просьба близкого друга, адвоката Клейнфилда, ввязавшегося в опасную авантюру, неудержимо тянут Карлито в пучину гибели…
Изображение
Бюджет: $30 000 000
Сборы в США: $36 948 322
Сборы в мире: $63 848 322
Мировая премьера: 10 ноября 1993
Релиз на DVD: 22 апреля 2009, «Азимут»

Награды
Золотой глобус, 1994 год
Номинации (2):
Лучшая мужская роль второго плана (Шон Пенн)
Лучшая женская роль второго плана (Пенелопа Энн Миллер)
Свернуть

Изображение
MPAA:
Раздача группы: Изображение
Качество: BDRip 1080р
Видео: 1920x816(OAR), x264(L4.1), ~13000 Kbps, 23.976fps
Аудио:

  • Russian: 48 kHz, DTS, 3/2 (L,C,R,l,r) + LFE ch, ~768.00 kbps avg |R5|
  • Russian: 48 kHz, AC3, 3/2 (L,C,R,l,r) + LFE ch, ~448.00 kbps avg |Позитив-Мультимедиа|
  • Russian: 48 kHz, DTS, 3/2 (L,C,R,l,r) + LFE ch, ~1536.00 kbps avg |П. Гланц и И. Королёва|
  • Russian: 48 kHz, DTS, 3/2 (L,C,R,l,r) + LFE ch, ~1536.00 kbps avg |А.Гаврилов|
  • English: 48 kHz, DTS, 3/2 (L,C,R,l,r) + LFE ch, ~1536.00 kbps avg

Субтитры: Russian, English

MI
H:\Фильмы\Carlito's Way 1993 1080p BluRay DTS x264-CtrlHD\Carlito's Way 1993 1080p BluRay DTS 1536 x264-CtrlHD.mkv
   General
      Complete name : H:\Фильмы\Carlito's Way 1993 1080p BluRay DTS x264-CtrlHD\Carlito's Way 1993 1080p BluRay DTS 1536 x264-CtrlHD.mkv
      Format : Matroska
      File size : 18.9 GiB
      Duration : 2h 24mn
      Overall bit rate : 18.7 Mbps
      Encoded date : UTC 2010-06-16 02:54:27
      Writing application : mkvmerge v3.3.0 ('Language') built on Mar 24 2010 14:59:24
      Writing library : libebml v0.8.0 + libmatroska v0.9.0
   Video #1
      ID : 1
      Format : AVC
      Format/Info : Advanced Video Codec
      Format profile : High@L4.1
      Format settings, CABAC : Yes
      Format settings, ReFrames : 5 frames
      Muxing mode : Container profile=Unknown@4.1
      Codec ID : V_MPEG4/ISO/AVC
      Duration : 2h 24mn
      Bit rate : 12.6 Mbps
      Nominal bit rate : 13.0 Mbps
      Width : 1 920 pixels
      Height : 816 pixels
      Display aspect ratio : 2.35:1
      Frame rate : 23.976 fps
      Resolution : 8 bits
      Colorimetry : 4:2:0
      Scan type : Progressive
      Bits/(Pixel*Frame) : 0.336
      Stream size : 12.7 GiB (67%)
      Writing library : x264 core 94 r1583 7608d73
      Encoding settings : cabac=1 / ref=5 / deblock=1:-3:-3 / analyse=0x3:0x133 / me=umh / subme=10 / psy=1 / psy_rd=0.80:0.00 / mixed_ref=1 / me_range=32 / chroma_me=1 / trellis=2 / 8x8dct=1 / cqm=0 / deadzone=21,11 / fast_pskip=0 / chroma_qp_offset=-2 / threads=12 / sliced_threads=0 / nr=0 / decimate=0 / interlaced=0 / constrained_intra=0 / bframes=8 / b_pyramid=2 / b_adapt=2 / b_bias=0 / direct=3 / weightb=1 / weightp=2 / keyint=250 / keyint_min=25 / scenecut=40 / intra_refresh=0 / rc_lookahead=40 / rc=2pass / mbtree=1 / bitrate=13000 / ratetol=1.0 / qcomp=0.60 / qpmin=10 / qpmax=51 / qpstep=4 / cplxblur=20.0 / qblur=0.5 / ip_ratio=1.40 / aq=1:0.80
      Language : English
   Audio #2
      ID : 2
      Format : DTS
      Format/Info : Digital Theater Systems
      Codec ID : A_DTS
      Duration : 2h 24mn
      Bit rate mode : Constant
      Bit rate : 755 Kbps
      Channel(s) : 6 channels
      Channel positions : Front: L C R, Side: L R, LFE
      Sampling rate : 48.0 KHz
      Resolution : 24 bits
      Stream size : 778 MiB (4%)
      Title : DTS 5.1, 48 kHz, 768 kbps: Многоголосный закадровый (Лицензия)
      Language : Russian
   Audio #3
      ID : 3
      Format : AC-3
      Format/Info : Audio Coding 3
      Codec ID : A_AC3
      Duration : 2h 24mn
      Bit rate mode : Constant
      Bit rate : 448 Kbps
      Channel(s) : 6 channels
      Channel positions : Front: L C R, Side: L R, LFE
      Sampling rate : 48.0 KHz
      Stream size : 462 MiB (2%)
      Title : AC3 5.1, 48 kHz, 448 kbps: Многоголосный закадровый (Позитив-Мультимедиа)
      Language : Russian
   Audio #4
      ID : 4
      Format : DTS
      Format/Info : Digital Theater Systems
      Codec ID : A_DTS
      Duration : 2h 24mn
      Bit rate mode : Constant
      Bit rate : 1 510 Kbps
      Channel(s) : 6 channels
      Channel positions : Front: L C R, Side: L R, LFE
      Sampling rate : 48.0 KHz
      Resolution : 24 bits
      Stream size : 1.52 GiB (8%)
      Title : AVO, Gavrilov
      Language : Russian
   Audio #5
      ID : 5
      Format : DTS
      Format/Info : Digital Theater Systems
      Codec ID : A_DTS
      Duration : 2h 24mn
      Bit rate mode : Constant
      Bit rate : 1 510 Kbps
      Channel(s) : 6 channels
      Channel positions : Front: L C R, Side: L R, LFE
      Sampling rate : 48.0 KHz
      Resolution : 24 bits
      Stream size : 1.52 GiB (8%)
      Title : DVO, Glanz and Koroleva
      Language : Russian
   Audio #6
      ID : 6
      Format : DTS
      Format/Info : Digital Theater Systems
      Codec ID : A_DTS
      Duration : 2h 24mn
      Bit rate mode : Constant
      Bit rate : 1 510 Kbps
      Channel(s) : 6 channels
      Channel positions : Front: L C R, Side: L R, LFE
      Sampling rate : 48.0 KHz
      Resolution : 24 bits
      Stream size : 1.52 GiB (8%)
      Title : DTS 5.1
      Language : English
   Text #7
      ID : 7
      Format : UTF-8
      Codec ID : S_TEXT/UTF8
      Codec ID/Info : UTF-8 Plain Text
      Language : English
   Text #8
      ID : 8
      Format : UTF-8
      Codec ID : S_TEXT/UTF8
      Codec ID/Info : UTF-8 Plain Text
      Language : Russian
Свернуть
"Знаете ли Вы, что..."
  • Изначально Брайан Де Пальма планировал снять концовку фильма во Всемирном торговом комплексе в Нью-Йорке.
  • Название ночного клуба, которым управляет Карлито (Аль Пачино), - «El Paraiso». Точно также называлась закусочная, в которой одно время работал персонаж Аль Пачино в фильме «Лицо со шрамом» (1983).
  • Как признался Шон Пенн, он согласился сыграть Дэвида Кляйнфельда только из-за денег, для того чтобы он смог профинансировать свой второй фильм «Постовой на перекрестке» (1995).
  • «Путь Карлито» - экранизация романа Эдвина Торреса «После работы» (After Hours). Однако, свое название фильм получил от первой книги Торреса - «Путь Карлито», в которой рассказывалось о молодых годах Карлоса Бриганте. Название фильма была изменено, для того чтобы избежать путаницы с комедийной драмой Мартина Скорсезе «После работы» (After Hours) (1985).
Свернуть

Скриншоты

Изображение
Изображение
Изображение
Изображение
Изображение
Свернуть
Оформлено by Евгений Лебедев


Последний раз редактировалось Биг 2013-10-11 20:18, всего редактировалось 2 раз(а).
Не в сети
Профиль  
 Добавлено: 2011-05-24 20:03 (спустя 3 месяца 5 дней)
Стаж: 9 лет
Сообщений: 46
Спасибок: 4
офигеть !почему такрой большой вес????
Не в сети
Профиль  
 Добавлено: 2011-05-24 20:42 (спустя 38 минут)
Инквизитор
Аватара пользователя
Стаж: 8 лет 9 месяцев
Сообщений: 3753
Спасибок: 28360
Лайков: 9
Никита_атикиН
дорожки, битрейт, продолжительность фильма :ti_pa:
Не в сети
Профиль  
Начать новую темуОтветить на тему  [ Сообщений: 3 ] 
Вы не можете начинать темы
Вы не можете отвечать на сообщения
Вы не можете редактировать свои сообщения
Вы не можете удалять свои сообщения