Правила форума

  • В этом разделе создание новых тем Запрещено.
  • Для создания новых тем пользуйтесь Корневым разделом DVD и HD фильмы.
Начать новую темуОтветить на тему  [ 1 сообщение ] 
Торрент файл
Размер: 6.04 GB • Зарегистрирован: 4 года 6 месяцев • Статус: Проверено
Скачан: 77 раз • Желающих скачать: 0 • Поблагодарили: 17 раз
 Раздают: 0  |  0 KB/s  ]   Качают: 0  |  0 KB/s  ] 
 Полного источника не было 3 года 2 месяца 
Сообщения
 Добавлено: 2012-05-21 20:57
Модератор
Аватара пользователя
Стаж: 6 лет 10 месяцев
Возраст: 33
Сообщений: 5908
Спасибок: 61250
Лайков: 3540
Изображение

Путешествие 2: Таинственный остров / Journey 2: The Mysterious Island


Год выпуска: 2012
Страна: США
Слоган: «Поверь в невозможное - открой невероятное!»
Жанр: фантастика, фэнтези, боевик, комедия, приключения, семейный
Продолжительность: 01:34:11
Перевод: Профессиональный (полное дублирование)
Режиссер: Брэд Пейтон
Сценарий: Брайан Ганн, Марк Ганн, Ричард Ауттен
Продюсер: Бо Флинн, Шарлотта Клэй Хаггинс, Трип Винсон
Оператор: Дэвид Тэттерсолл
Композитор: Эндрю Локингтон
В ролях: Дуэйн Джонсон, Майкл Кейн, Джош Хатчерсон, Ванесса Энн Хадженс, Луис Гузман, Кристин Дэвис, Анна Колвелл, Стивен Кодилл, Брэнском Ричмонд, Уолтер , Бэнксон
Бюджет: $79 000 000
Сборы в США: $102 652 434
Сборы в России: $17 588 757
Сборы в мире: $322 652 434
Описание: На этот раз Шон Андерсон получает закодированный сигнал с просьбой о помощи, причем с загадочного острова, из места, где никакого острова и быть не может. Там обитают странные формы жизни, скрываются горы золота, смертоносные вулканы и не одна ошеломляющая тайна. Отчиму Шона, не сумевшему остановить его, ничего не остается, как тоже присоединиться к поискам. Вместе с пилотом вертолета и его прекрасной и решительной дочерью им предстоит найти остров, спасти его одинокого обитателя и немедленно покинуть это место, прежде чем землетрясение скроет остров под водой и похоронит навеки его сокровища.
Изображение
MPAA: Изображение
Мировая премьера: 19 января 2012
Релиз на DVD: 28 мая 2012, «CP Дистрибуция»
Релиз на Blu-ray: 28 мая 2012, «CP Дистрибуция»
Релиз группы: Изображение
Раздача группы: Изображение
Качество: BDRip, 720p
Формат: Matroska
Видео: AVC; 1280x720 (16:9); 7042 Kbps
Аудио №1: Russian; AC3; 448 Kbps; CBR; 6 ch
Аудио №2: DTS; 1509 Kbps; CBR; 6 ch; 24 bit
Оригинал
Субтитры №1:
Субтитры №2:


"Знаете ли Вы, что..."
  • Съёмки фильма проходили на острове Оаху и в Уилмингтоне.
Свернуть
MediaInfo
Общее
Complete name : D:\Новая папка\Puteshestvie.2.Tainstvennyj.ostrov.2012.D.BDRip.720p.ELEKTRI4KA.mkv
Format : Matroska
Format version : Version 2
File size : 6,04 Гбайт
Duration : 1 ч. 34 м.
Overall bit rate : 9183 Кбит/сек
Movie name : Puteshestvie.2.Tainstvennyj.ostrov.2012.D.BDRip.720p.ELEKTRI4KA - by sstonecold -
Encoded date : UTC 2012-05-21 14:41:33
Writing application : mkvmerge v5.2.0 ('I can't explain') built on Dec 18 2011 18:12:03
Writing library : libebml v1.2.3 + libmatroska v1.3.0

Видео
ID : 1
Format : AVC
Format/Info : Advanced Video Codec
Format profile : High@L4.1
Format settings, CABAC : Да
Format settings, ReFrames : 9 кадров
Codec ID : V_MPEG4/ISO/AVC
Duration : 1 ч. 34 м.
Bit rate : 7228 Кбит/сек
Width : 1280 пикселей
Height : 720 пикселей
Display aspect ratio : 16:9
Frame rate : 23,976 кадра/сек
Color space : YUV
Chroma subsampling : 4:2:0
Bit depth : 8 бит
Scan type : Прогрессивная
Bits/(Pixel*Frame) : 0.327
Stream size : 4,63 Гбайт (77%)
Title : Puteshestvie.2.Tainstvennyj.ostrov.2012.D.BDRip.720p.ELEKTRI4KA - by sstonecold -
Writing library : x264 core 124 r2197 69a0443
Encoding settings : cabac=1 / ref=9 / deblock=1:-3:-3 / analyse=0x3:0x113 / me=tesa / subme=11 / psy=1 / psy_rd=1.05:0.01 / mixed_ref=1 / me_range=32 / chroma_me=1 / trellis=2 / 8x8dct=1 / cqm=0 / deadzone=21,11 / fast_pskip=0 / chroma_qp_offset=-3 / threads=12 / sliced_threads=0 / nr=0 / decimate=1 / interlaced=0 / bluray_compat=0 / constrained_intra=0 / bframes=6 / b_pyramid=2 / b_adapt=2 / b_bias=0 / direct=3 / weightb=1 / open_gop=0 / weightp=2 / keyint=240 / keyint_min=23 / scenecut=40 / intra_refresh=0 / rc_lookahead=80 / rc=2pass / mbtree=1 / bitrate=7228 / ratetol=1.0 / qcomp=0.70 / qpmin=0 / qpmax=69 / qpstep=4 / cplxblur=20.0 / qblur=0.5 / vbv_maxrate=40000 / vbv_bufsize=40000 / nal_hrd=none / ip_ratio=1.40 / aq=1:0.90
Language : English
Default : Нет
Forced : Нет

Аудио #1
ID : 2
Format : AC-3
Format/Info : Audio Coding 3
Mode extension : CM (complete main)
Codec ID : A_AC3
Duration : 1 ч. 34 м.
Bit rate mode : Постоянный
Bit rate : 448 Кбит/сек
Channel(s) : 6 каналов
Channel positions : Front: L C R, Side: L R, LFE
Sampling rate : 48,0 КГц
Bit depth : 16 бит
Compression mode : С потерями
Stream size : 302 Мбайт (5%)
Language : Russian
Default : Да
Forced : Нет

Аудио #2
ID : 3
Format : DTS
Format/Info : Digital Theater Systems
Codec ID : A_DTS
Duration : 1 ч. 34 м.
Bit rate mode : Постоянный
Bit rate : 1510 Кбит/сек
Channel(s) : 6 каналов
Channel positions : Front: L C R, Side: L R, LFE
Sampling rate : 48,0 КГц
Bit depth : 24 бит
Compression mode : С потерями
Stream size : 1017 Мбайт (16%)
Language : English
Default : Нет
Forced : Нет

Текст #1
ID : 4
Format : UTF-8
Codec ID : S_TEXT/UTF8
Codec ID/Info : UTF-8 Plain Text
Language : English
Default : Да
Forced : Нет

Текст #2
ID : 5
Format : UTF-8
Codec ID : S_TEXT/UTF8
Codec ID/Info : UTF-8 Plain Text
Title : SDH
Language : English
Default : Нет
Forced : Нет

Меню
00:00:00.000 : en:Chapter 01
00:10:52.401 : en:Chapter 02
00:19:13.277 : en:Chapter 03
00:30:06.805 : en:Chapter 04
00:39:21.442 : en:Chapter 05
00:49:58.662 : en:Chapter 06
00:59:03.456 : en:Chapter 07
01:09:11.772 : en:Chapter 08
01:19:27.095 : en:Chapter 09
01:26:03.491 : en:Chapter 10
Свернуть

Скриншоты

Изображение
Изображение
Изображение
Изображение
Свернуть
_________________
ИзображениеИзображение Изображение
Изображение
 tany1984 и di-ys1 нравится это.
Не в сети
Профиль  
Начать новую темуОтветить на тему  [ 1 сообщение ] 
Вы не можете начинать темы
Вы не можете отвечать на сообщения
Вы не можете редактировать свои сообщения
Вы не можете удалять свои сообщения