Правила форума

  • В этом разделе создание новых тем Запрещено.
  • Для создания новых тем пользуйтесь Корневым разделом DVD и HD фильмы.
Начать новую темуОтветить на тему  [ Сообщений: 2 ] 
Торрент файл
Размер: 6.47 GB • Зарегистрирован: 4 года 4 месяца • Статус: Проверено
Скачан: 36 раз • Желающих скачать: 0 • Поблагодарили: 14 раз
 Раздают: 0  |  0 KB/s  ]   Качают: 0  |  0 KB/s  ] 
 Полного источника не было 9 месяцев 
Сообщения
 Добавлено: 2012-07-25 15:14
Top-releaser
Аватара пользователя
Стаж: 6 лет 7 месяцев
Сообщений: 2078
Спасибок: 3230
Лайков: 9
Изображение

Пьяный мастер / Jui kuen


Год выпуска: 1978
Страна: Гонконг
Жанр: боевик, комедия
Продолжительность: 01:46:35
Перевод: Профессиональный (многоголосый, закадровый)
Режиссер: Юэнь Ву-Пин
Сценарий: Хсиао Ланг, Нг Сиюэнь, Юэнь Ву-Пин
Продюсер: Нг Сиюэнь
Оператор: Хуи Чанг
Композитор: Фу Лианг Чоу
В ролях: Джеки Чан, Сиу Тиен Юэнь, Янг Ли Хванг, Сиу Хунг Чэм, Чен Тиен Лунг, Чинг Чианг, Джинг Мэн Фанг, Хсю Хсиа, Йинг Ли, Чао Лин, Линда Лин, Дин Шек

Описание: Молодой Вонг Фей-Хун, будущий народный герой Китая, защитник обездоленных и обиженных, в молодости был весьма строптив и дерзок. Настолько, что отец отослал неуправляемого сына к дяде, известному мастеру кунг-фу и большому эксперту в двух вещах: распитии крепких спиртных напитков и выбивании дури из самонадеянных юнцов. Неудивительно, что герой сбегает от дяди-садиста при первой же возможности.
Увы, тут же побитый и униженный бандитом-профи, он возвращается назад к Пьяному Мастеру. Придется ему, скрипя зубами, терпеть иезуитские методы воспитания дяди, дабы потом, постигнув все тонкости боевых искусств, отомстить своему обидчику, который, к тому же, собирается убить его отца
Изображение
Раздача группы: Изображение
Качество: HDTVRip
Формат: Matroska
Видео:AVC; 1280x548 (2.35:1); 7429 Kbps; 25 fps; 0,424 bit/pixel
Аудио №1:Russian; AC3; 192 Kbps; CBR; 2 ch
Аудио №2:Russian; AC3; 448 Kbps; CBR; 2 ch [Гоблин]
Аудио №3:AC3; 448 Kbps; CBR; 2 ch
Субтитры: Russian, English

"Знаете ли Вы, что..."
  • Во многих сценах боев 66-летнего Юэнь Сиу Тиена дублируют его сыновья - Юэнь Чеунг-Ян и режиссер Юэнь Ву Пинг.
Свернуть
MediaInfo
Общее
Уникальный идентификатор : 209997232206342124820556550498740524598 (0x9DFBFEEB1342785B8CFBA3CAA0CED636)
Полное имя : Z:\WWW\TR-Downloads\Jui.kuen.720p[R.G.Daredevil].mkv
Формат : Matroska
Версия формата : Version 2
Размер файла : 6,47 Гбайт
Продолжительность : 1 ч. 46 м.
Общий поток : 8691 Кбит/сек
Дата кодирования : UTC 2012-03-05 12:00:43
Программа кодирования : mkvmerge v5.3.0 ('I could have danced') built on Feb 9 2012 10:38:07
Библиотека кодирования : libebml v1.2.3 + libmatroska v1.3.0

Видео
Идентификатор : 1
Формат : AVC
Формат/Информация : Advanced Video Codec
Профиль формата : High@L4.1
Параметр CABAC формата : Да
Параметр ReFrames формата : 11 кадров
Идентификатор кодека : V_MPEG4/ISO/AVC
Продолжительность : 1 ч. 46 м.
Битрейт : 7600 Кбит/сек
Ширина : 1280 пикселей
Высота : 548 пикселей
Соотношение сторон : 2,35:1
Частота кадров : 25,000 кадров/сек
Цветовое пространство : YUV
Субдискретизация насыщенности : 4:2:0
Битовая глубина : 8 бит
Тип развёртки : Прогрессивная
Бит/(Пиксели*Кадры) : 0.433
Размер потока : 5,53 Гбайт (85%)
Заголовок : Jui kuen / Drunken Master (1978) 720p HDTVRip x264-HDv0T / shef2010
Библиотека кодирования : x264 core 120 r2164 da19765
Настройки программы : cabac=1 / ref=11 / deblock=1:-3:-3 / analyse=0x3:0x113 / me=umh / subme=11 / psy=1 / psy_rd=1.00:0.00 / mixed_ref=1 / me_range=24 / chroma_me=1 / trellis=2 / 8x8dct=1 / cqm=0 / deadzone=21,11 / fast_pskip=0 / chroma_qp_offset=-2 / threads=3 / sliced_threads=0 / nr=0 / decimate=0 / interlaced=0 / bluray_compat=0 / constrained_intra=0 / bframes=6 / b_pyramid=2 / b_adapt=2 / b_bias=0 / direct=3 / weightb=1 / open_gop=0 / weightp=2 / keyint=250 / keyint_min=25 / scenecut=40 / intra_refresh=0 / rc=2pass / mbtree=0 / bitrate=7600 / ratetol=1.0 / qcomp=0.60 / qpmin=0 / qpmax=69 / qpstep=4 / cplxblur=20.0 / qblur=0.5 / ip_ratio=1.40 / pb_ratio=1.30 / aq=2:1.00
Язык : English
Default : Нет
Forced : Нет

Аудио #1
Идентификатор : 2
Формат : AC-3
Формат/Информация : Audio Coding 3
Расширение режима : CM (complete main)
Параметр Endianness формата : Big
Идентификатор кодека : A_AC3
Продолжительность : 1 ч. 46 м.
Вид битрейта : Постоянный
Битрейт : 192 Кбит/сек
Каналы : 2 канала
Расположение каналов : Front: L R
Частота : 48,0 КГц
Битовая глубина : 16 бит
Метод сжатия : С потерями
Размер потока : 146 Мбайт (2%)
Заголовок : AC3 2.0 @ 192 kbps [два голоса]
Язык : Russian
Default : Да
Forced : Нет

Аудио #2
Идентификатор : 3
Формат : AC-3
Формат/Информация : Audio Coding 3
Расширение режима : CM (complete main)
Параметр Endianness формата : Big
Идентификатор кодека : A_AC3
Продолжительность : 1 ч. 46 м.
Вид битрейта : Постоянный
Битрейт : 448 Кбит/сек
Каналы : 2 канала
Расположение каналов : Front: L R
Частота : 48,0 КГц
Битовая глубина : 16 бит
Метод сжатия : С потерями
Размер потока : 342 Мбайт (5%)
Заголовок : AC3 2.0 @ 448 kbps [один голос Гоблин]
Язык : Russian
Default : Нет
Forced : Нет

Аудио #3
Идентификатор : 4
Формат : AC-3
Формат/Информация : Audio Coding 3
Расширение режима : CM (complete main)
Параметр Endianness формата : Big
Идентификатор кодека : A_AC3
Продолжительность : 1 ч. 46 м.
Вид битрейта : Постоянный
Битрейт : 448 Кбит/сек
Каналы : 2 канала
Расположение каналов : Front: L R
Частота : 48,0 КГц
Битовая глубина : 16 бит
Метод сжатия : С потерями
Размер потока : 342 Мбайт (5%)
Заголовок : AC3 2.0 @ 448 kbps [Cantonese]
Язык : English
Default : Нет
Forced : Нет

Текст #1
Идентификатор : 5
Формат : ASS
Идентификатор кодека : S_TEXT/ASS
Идентификатор кодека/Информация : Advanced Sub Station Alpha
Метод сжатия : Без потерь
Язык : Russian
Default : Нет
Forced : Нет

Текст #2
Идентификатор : 6
Формат : ASS
Идентификатор кодека : S_TEXT/ASS
Идентификатор кодека/Информация : Advanced Sub Station Alpha
Метод сжатия : Без потерь
Заголовок : [Гоблин]
Язык : Russian
Default : Нет
Forced : Нет

Текст #3
Идентификатор : 7
Формат : ASS
Идентификатор кодека : S_TEXT/ASS
Идентификатор кодека/Информация : Advanced Sub Station Alpha
Метод сжатия : Без потерь
Язык : English
Default : Нет
Forced : Нет
Свернуть
Скриншоты
Изображение
Изображение
Изображение
Изображение
Изображение
Свернуть
Не в сети
Профиль  
 Добавлено: 2012-07-25 23:17 (спустя 8 часов)
Аватара пользователя
Стаж: 8 лет 6 месяцев
Сообщений: 82
Спасибок: 460
Джеки лучший))Спасибо
Не в сети
Профиль  
Начать новую темуОтветить на тему  [ Сообщений: 2 ] 
Вы не можете начинать темы
Вы не можете отвечать на сообщения
Вы не можете редактировать свои сообщения
Вы не можете удалять свои сообщения