Правила форума

  • В этом разделе создание новых тем Запрещено.
  • Для создания новых тем пользуйтесь Корневым разделом DVD и HD фильмы.
Начать новую темуОтветить на тему  [ 1 сообщение ] 
Торрент файл
Размер: 4.37 GB • Зарегистрирован: 4 года • Статус: Проверено
Скачан: 2 раза • Желающих скачать: 0 • Поблагодарили: 0 раз
 Раздают: 0  |  0 KB/s  ]   Качают: 0  |  0 KB/s  ] 
 Полного источника не было 3 года 2 месяца 
Сообщения
 Добавлено: 2012-11-12 15:40
Книголюб
Аватара пользователя
Стаж: 7 лет 2 месяца
Сообщений: 2823
Спасибок: 48823
Лайков: 73
Пятьдесят ходячих трупов
Fifty Dead Men Walking

Изображение


Год выпуска: 2008
Страна: Великобритания, Канада
Слоган: «On which side do you belong?»
Жанр: триллер, драма
Продолжительность: 01:57:35
Перевод: Профессиональный (двухголосый закадровый)

Режиссёр: Кари Скогланд
В ролях: Кевин Зегерс, Бен Кингсли, Роуз МакГоун, Том Коллинз, Уильям Хьюстон, Джим Стёрджесс, Натали Пресс
Описание: Кино о двойном агенте из Белфаста Мартине МакГартланде, который в 80-х годах был завербован полицией Великобритании шпионить за ИРА. Он начал свою работу волонтёром в этой организации и успешно передавал информацию своим работодателям, пока не был раскрыт. Чудом избежавший смерти, МакГартланд до сих пор скрывается от ирландских террористов.
Рейтинг MPAA: Рейтинг R (Подростки до 17 лет допускаются на фильм только в сопровождении одного из родителей)
Мировая премьера: 10 сентября 2008
Бюджет: £6 000 000
Изображение

Качество: BDRip 720p
Формат: MKV
Видео кодек: H.264
Аудио кодек: AC3 (Dolby Digital)
Видео: 1280x544 23.976fps 4 300 Kbps 0.258Bits/Pixel
Аудио #1: Rus:48000Hz 6ch 384 Kbps
Аудио #2: Eng:48000Hz 6ch 640 Kbps
MediaInfo
General
Unique ID : 239503432896186725940979118500439994348 (0xB42EAEEE0C64B1EEB1B519D5C40D2FEC)
Complete name : K:\Torrent\Pjatdesjat.chodjacich.trupov..mkv
Format : Matroska
Format version : Version 2
File size : 4.37 GiB
Duration : 1h 57mn
Overall bit rate : 5 321 Kbps
Movie name : -=ReleaseFfClub=-
Encoded date : UTC 2012-11-07 17:09:12
Writing application : mkvmerge v4.3.0 ('Escape from the Island') сборка от Sep 5 2010 10:30:51
Writing library : libebml v1.0.0 + libmatroska v1.0.0

Video
ID : 1
Format : AVC
Format/Info : Advanced Video Codec
Format profile : High@L4.1
Format settings, CABAC : Yes
Format settings, ReFrames : 6 frames
Codec ID : V_MPEG4/ISO/AVC
Duration : 1h 57mn
Bit rate : 4 300 Kbps
Width : 1 280 pixels
Height : 544 pixels
Display aspect ratio : 2.35:1
Frame rate : 23.976 fps
Color space : YUV
Chroma subsampling : 4:2:0
Bit depth : 8 bits
Scan type : Progressive
Bits/(Pixel*Frame) : 0.258
Stream size : 3.44 GiB (79%)
Title : Pjatdesjat.chodjacich.trupov.2008.x264.BDRip(720p)-neni
Writing library : x264 core 125 r2200 999b753
Encoding settings : cabac=1 / ref=6 / deblock=1:-3:-3 / analyse=0x3:0x133 / me=umh / subme=11 / psy=1 / psy_rd=1.00:0.00 / mixed_ref=1 / me_range=42 / chroma_me=1 / trellis=2 / 8x8dct=1 / cqm=0 / deadzone=21,11 / fast_pskip=0 / chroma_qp_offset=1 / threads=9 / lookahead_threads=1 / sliced_threads=0 / nr=0 / decimate=0 / interlaced=0 / bluray_compat=0 / constrained_intra=0 / bframes=9 / b_pyramid=2 / b_adapt=2 / b_bias=0 / direct=2 / weightb=1 / open_gop=0 / weightp=2 / keyint=240 / keyint_min=23 / scenecut=40 / intra_refresh=0 / rc_lookahead=40 / rc=2pass / mbtree=0 / bitrate=4300 / ratetol=1.0 / qcomp=0.60 / qpmin=0 / qpmax=69 / qpstep=4 / cplxblur=20.0 / qblur=0.5 / vbv_maxrate=50000 / vbv_bufsize=50000 / nal_hrd=none / ip_ratio=1.40 / pb_ratio=1.30 / aq=1:1.00
Language : Russian
Default : Yes
Forced : Yes

Audio #1
ID : 2
Format : AC-3
Format/Info : Audio Coding 3
Mode extension : CM (complete main)
Codec ID : A_AC3
Duration : 1h 57mn
Bit rate mode : Constant
Bit rate : 384 Kbps
Channel(s) : 6 channels
Channel positions : Front: L C R, Side: L R, LFE
Sampling rate : 48.0 KHz
Bit depth : 16 bits
Compression mode : Lossy
Delay relative to video : 396ms
Stream size : 323 MiB (7%)
Title : Профессиональный двухголосый (InterFilm)
Language : Russian
Default : Yes
Forced : Yes

Audio #2
ID : 3
Format : AC-3
Format/Info : Audio Coding 3
Mode extension : CM (complete main)
Codec ID : A_AC3
Duration : 1h 57mn
Bit rate mode : Constant
Bit rate : 640 Kbps
Channel(s) : 6 channels
Channel positions : Front: L C R, Side: L R, LFE
Sampling rate : 48.0 KHz
Bit depth : 16 bits
Compression mode : Lossy
Stream size : 538 MiB (12%)
Title : Английский
Language : English
Default : No
Forced : No

Text
ID : 4
Format : UTF-8
Codec ID : S_TEXT/UTF8
Codec ID/Info : UTF-8 Plain Text
Title : Английские
Language : English
Default : No
Forced : No

Menu
00:00:00.000 : :Chapter 01
00:06:45.404 : :Chapter 02
00:16:10.970 : :Chapter 03
00:26:05.563 : :Chapter 04
00:36:46.204 : :Chapter 05
00:45:05.703 : :Chapter 06
00:53:26.203 : :Chapter 07
01:03:17.794 : :Chapter 08
01:14:24.460 : :Chapter 09
01:23:56.031 : :Chapter 10
01:33:31.606 : :Chapter 11
01:44:18.252 : :Chapter 12
01:57:32.879 : :Chapter 13


Свернуть


Скриншоты
Изображение
Изображение
Изображение
Свернуть
Не в сети
Профиль  
Начать новую темуОтветить на тему  [ 1 сообщение ] 
Вы не можете начинать темы
Вы не можете отвечать на сообщения
Вы не можете редактировать свои сообщения
Вы не можете удалять свои сообщения