Правила форума

  • В этом разделе создание новых тем Запрещено.
  • Для создания новых тем пользуйтесь Корневым разделом DVD и HD фильмы.
Начать новую темуОтветить на тему  [ Сообщений: 12 ] 
Торрент файл
Размер: 15.97 GB • Зарегистрирован: 6 лет 7 месяцев • Статус: Проверено
Скачан: 104 раза • Желающих скачать: 0 • Поблагодарили: 35 раз
 Раздают: 0  |  0 KB/s  ]   Качают: 0  |  0 KB/s  ] 
 Полного источника не было 1 день 17 часов 
Сообщения
 Добавлено: 2010-05-04 21:04
Дрeвнeйший торрeнтовщик
Аватара пользователя
Стаж: 9 лет 1 месяц
Возраст: 34
Сообщений: 1486
Спасибок: 4483
Лайков: 13
[17 звуковых дорожек] Пятый элемент / The Fifth Element (Люк Бессон / Luc Besson) [1997 г. BRRip 1080p]


Изображение


Год выпуска: 1997
Страна: Франция
Жанр: Фантастика, боевик, триллер, приключения
Продолжительность: 02:06:28
Переводы:
1.Профессиональный (полное дублирование)
2.Профессиональный (полное дублирование) НТВ Профит
3.Профессиональный (многоголосый, закадровый)
4.Профессиональный (многоголосый, закадровый) СТС
5.Профессиональный (двухголосный, закадровый) Гланц и Королёва
6.Авторский (одноголосный) Гаврилов
7.Авторский (одноголосный) Живов
8.Авторский (Неопознанный)
9.Авторский В.Штейн - Буратино, но может и Е. Хрусталёв
10.Авторский П.Иващенко
11.украинский (многоголосый, закадровый) 1+1
12.Украинский (многоголосый, закадровый) СТБ
13.Смешной перевод - "Однажды в Чернобыле"
14.Смешной перевод - "Элементарная Пятерка"
15.Французский DTS
16.Оригинал English, DTS-HD MA
17.Оригинал English, DTS

Субтитры:
Subtitle: UTF-8 [Russian, Русские(SRT) (Subtitle 1)]
Subtitle: UTF-8 [English, Английские(SRT) (Subtitle 2)]
Subtitle: UTF-8 [Russian, Субтитры в которых "переведены" надписи на экране и с конце на финальных титрах - список использованных в фильме музыки]

Режиссер: Люк Бессон

В ролях: Брюс Уиллис, Гари Олдман, Йен Холм, Милла Йовович, Крис Такер, Люк Перри, Брайон Джеймс, Том «Тини» Листер мл., Ли Эванс и другие.

Описание: Каждые пять тысяч лет открываются двери между измерениями и темные силы стремятся нарушить существующую гармонию. Каждые пять тысяч лет Вселенной нужен герой, способный противостоять этому злу.
XXIII век. Нью-йоркский таксист Корбен Даллас должен решить глобальную задачу - спасение всего рода человеческого.
Зло в виде раскаленной массы, наделенной интеллектом, надвигается на Землю. Победить его можно, только лишь собрав воедино четыре элемента (они же стихии - земля, вода, воздух и огонь) и добавив к ним загадочный пятый элемент.

Технические данные:

Video: MPEG4 Video (H264) 1920x800 23.98fps [French, MPEG4 Video (H264) 1920x800, 2.35c1, 23.976 fps ~ 8,548 Mbit/sec (Video 1)]
Audio: Dolby AC3 48000Hz 6ch [Russian, Профессиональный (полное дублирование) (Audio 1)]
Audio: Dolby AC3 48000Hz stereo [Russian, Профессиональный (полное дублирование) НТВ Профит (Audio 2)]
Audio: Dolby AC3 48000Hz stereo [Russian, Профессиональный (многоголосый, закадровый) (Audio 3)]
Audio: Dolby AC3 48000Hz stereo [Russian, Профессиональный (многоголосый, закадровый) СТС (Audio 4)]
Audio: Dolby AC3 48000Hz 6ch [Russian, Профессиональный (двухголосный, закадровый) Гланц и Королёва (Audio 5)]
Audio: Dolby AC3 48000Hz 6ch [Russian, Авторский (одноголосный) Гаврилов (Audio 6)]
Audio: Dolby AC3 48000Hz 6ch [Russian, Авторский (одноголосный) Живов (Audio 7)]
Audio: MPEG Audio Layer 3 44100Hz stereo [Russian, Авторский (Неопознанный) (Audio 8)]
Audio: Dolby AC3 48000Hz stereo [Russian, Авторский В.Штейн - Буратино, но может и Е. Хрусталёв (Audio 9)]
Audio: Dolby AC3 48000Hz stereo [Russian, Авторский П.Иващенко (Audio 10)]
Audio: Dolby AC3 48000Hz stereo [Ukrainian, украинский (многоголосый, закадровый) 1+1 (Audio 11)]
Audio: Dolby AC3 48000Hz stereo [Ukrainian, Украинский (многоголосый, закадровый) СТБ (Audio 12)]
Audio: Dolby AC3 48000Hz stereo [Russian, Смешной перевод - "Однажды в Чернобыле" (Audio 13)]
Audio: Dolby AC3 48000Hz 6ch [Russian, Смешной перевод - "Элементарная Пятерка" (Audio 14)]
Audio: DTS 48000Hz 6ch [French, Французский DTS (Audio 15)]
Audio: DTS 48000Hz 6ch [English, DTS-HD MA 48000Hz 6ch 2365 kbps, Lossless (corec DTS 48000Hz 6ch 1536 kbps) (Audio 16)]
Audio: DTS 48000Hz 6ch [English, DTS 48000Hz 6ch 1536Kbps (Audio 17)]

"Скриншоты"

Изображение
Изображение
Изображение
Изображение
Свернуть




Изображение

Изображение



"Данные о файле"

General
Complete name : I:\Фильмы\The Fifth Element Last editions.mkv
Format : Matroska
File size : 16.0 GiB
Duration : 2h 6mn
Overall bit rate : 18.1 Mbps
Encoded date : UTC 2010-05-04 17:24:40
Writing application : mkvmerge v3.1.0 ('Happy up here') built on Jan 19 2010 12:09:24
Writing library : libebml v0.7.9 + libmatroska v0.8.1

Video
ID : 1
Format : AVC
Format/Info : Advanced Video Codec
Format profile : High@L4.1
Format settings, CABAC : Yes
Format settings, ReFrames : 3 frames
Muxing mode : Container profile=Unknown@0.0
Codec ID : V_MPEG4/ISO/AVC
Duration : 2h 6mn
Nominal bit rate : 8 548 Kbps
Width : 1 920 pixels
Height : 800 pixels
Display aspect ratio : 2.40:1
Frame rate : 23.976 fps
Resolution : 24 bits
Colorimetry : 4:2:0
Scan type : Progressive
Bits/(Pixel*Frame) : 0.232
Title : MPEG4 Video (H264) 1920x800, 2.35c1, 23.976 fps ~ 8,548 Mbit/sec
Writing library : x264 core 66 r1109M 75b495f
Encoding settings : cabac=1 / ref=3 / deblock=1:-1:-1 / analyse=0x3:0x113 / me=hex / subme=6 / psy_rd=1.0:0.0 / mixed_ref=1 / me_range=16 / chroma_me=1 / trellis=1 / 8x8dct=1 / cqm=0 / deadzone=21,11 / chroma_qp_offset=-2 / threads=3 / nr=0 / decimate=1 / mbaff=0 / bframes=3 / b_pyramid=0 / b_adapt=1 / b_bias=0 / direct=3 / wpredb=1 / keyint=250 / keyint_min=25 / scenecut=40(pre) / rc=2pass / bitrate=8548 / ratetol=1.0 / qcomp=0.60 / qpmin=10 / qpmax=51 / qpstep=4 / cplxblur=20.0 / qblur=0.5 / vbv_maxrate=50000 / vbv_bufsize=50000 / ip_ratio=1.40 / pb_ratio=1.30 / aq=1:1.0
Language : French

Audio #1
ID : 2
Format : AC-3
Format/Info : Audio Coding 3
Codec ID : A_AC3
Duration : 2h 6mn
Bit rate mode : Constant
Bit rate : 448 Kbps
Channel(s) : 6 channels
Channel positions : Front: L C R, Surround: L R, LFE
Sampling rate : 48.0 KHz
Stream size : 405 MiB (2%)
Title : Профессиональный (полное дублирование)
Language : Russian

Audio #2
ID : 3
Format : AC-3
Format/Info : Audio Coding 3
Codec ID : A_AC3
Duration : 2h 6mn
Bit rate mode : Constant
Bit rate : 192 Kbps
Channel(s) : 2 channels
Channel positions : L R
Sampling rate : 48.0 KHz
Stream size : 174 MiB (1%)
Title : Профессиональный (полное дублирование) НТВ Профит
Language : Russian

Audio #3
ID : 4
Format : AC-3
Format/Info : Audio Coding 3
Codec ID : A_AC3
Duration : 2h 6mn
Bit rate mode : Constant
Bit rate : 192 Kbps
Channel(s) : 2 channels
Channel positions : L R
Sampling rate : 48.0 KHz
Stream size : 174 MiB (1%)
Title : Профессиональный (многоголосый, закадровый)
Language : Russian

Audio #4
ID : 5
Format : AC-3
Format/Info : Audio Coding 3
Codec ID : A_AC3
Duration : 2h 6mn
Bit rate mode : Constant
Bit rate : 192 Kbps
Channel(s) : 2 channels
Channel positions : L R
Sampling rate : 48.0 KHz
Stream size : 174 MiB (1%)
Title : Профессиональный (многоголосый, закадровый) СТС
Language : Russian

Audio #5
ID : 6
Format : AC-3
Format/Info : Audio Coding 3
Codec ID : A_AC3
Duration : 2h 6mn
Bit rate mode : Constant
Bit rate : 448 Kbps
Channel(s) : 6 channels
Channel positions : Front: L C R, Surround: L R, LFE
Sampling rate : 48.0 KHz
Stream size : 405 MiB (2%)
Title : Профессиональный (двухголосный, закадровый) Гланц и Королёва
Language : Russian

Audio #6
ID : 7
Format : AC-3
Format/Info : Audio Coding 3
Codec ID : A_AC3
Duration : 2h 6mn
Bit rate mode : Constant
Bit rate : 448 Kbps
Channel(s) : 6 channels
Channel positions : Front: L C R, Surround: L R, LFE
Sampling rate : 48.0 KHz
Stream size : 405 MiB (2%)
Title : Авторский (одноголосный) Гаврилов
Language : Russian

Audio #7
ID : 8
Format : AC-3
Format/Info : Audio Coding 3
Codec ID : A_AC3
Duration : 2h 6mn
Bit rate mode : Constant
Bit rate : 448 Kbps
Channel(s) : 6 channels
Channel positions : Front: L C R, Surround: L R, LFE
Sampling rate : 48.0 KHz
Stream size : 405 MiB (2%)
Title : Авторский (одноголосный) Живов
Language : Russian

Audio #8
ID : 9
Format : MPEG Audio
Format version : Version 1
Format profile : Layer 3
Codec ID : A_MPEG/L3
Codec ID/Hint : MP3
Duration : 2h 6mn
Bit rate mode : Constant
Bit rate : 128 Kbps
Channel(s) : 2 channels
Sampling rate : 44.1 KHz
Resolution : 16 bits
Stream size : 116 MiB (1%)
Title : Авторский (Неопознанный)
Language : Russian

Audio #9
ID : 10
Format : AC-3
Format/Info : Audio Coding 3
Codec ID : A_AC3
Duration : 2h 6mn
Bit rate mode : Constant
Bit rate : 192 Kbps
Channel(s) : 2 channels
Channel positions : L R
Sampling rate : 48.0 KHz
Stream size : 174 MiB (1%)
Title : Авторский В.Штейн - Буратино, но может и Е. Хрусталёв
Language : Russian

Audio #10
ID : 11
Format : AC-3
Format/Info : Audio Coding 3
Codec ID : A_AC3
Duration : 2h 6mn
Bit rate mode : Constant
Bit rate : 160 Kbps
Channel(s) : 2 channels
Channel positions : L R
Sampling rate : 48.0 KHz
Stream size : 145 MiB (1%)
Title : Авторский П.Иващенко
Language : Russian

Audio #11
ID : 12
Format : AC-3
Format/Info : Audio Coding 3
Codec ID : A_AC3
Duration : 2h 6mn
Bit rate mode : Constant
Bit rate : 192 Kbps
Channel(s) : 2 channels
Channel positions : L R
Sampling rate : 48.0 KHz
Stream size : 174 MiB (1%)
Title : украинский (многоголосый, закадровый) 1+1
Language : Ukrainian

Audio #12
ID : 13
Format : AC-3
Format/Info : Audio Coding 3
Codec ID : A_AC3
Duration : 2h 6mn
Bit rate mode : Constant
Bit rate : 192 Kbps
Channel(s) : 2 channels
Channel positions : L R
Sampling rate : 48.0 KHz
Stream size : 174 MiB (1%)
Title : Украинский (многоголосый, закадровый) СТБ
Language : Ukrainian

Audio #13
ID : 14
Format : AC-3
Format/Info : Audio Coding 3
Codec ID : A_AC3
Duration : 2h 6mn
Bit rate mode : Constant
Bit rate : 448 Kbps
Channel(s) : 2 channels
Channel positions : L R
Sampling rate : 48.0 KHz
Stream size : 405 MiB (2%)
Title : Смешной перевод - "Однажды в Чернобыле"
Language : Russian

Audio #14
ID : 15
Format : AC-3
Format/Info : Audio Coding 3
Codec ID : A_AC3
Duration : 2h 6mn
Bit rate mode : Constant
Bit rate : 384 Kbps
Channel(s) : 6 channels
Channel positions : Front: L C R, Surround: L R, LFE
Sampling rate : 48.0 KHz
Stream size : 347 MiB (2%)
Title : Смешной перевод - "Элементарная Пятерка"
Language : Russian

Audio #15
ID : 16
Format : DTS
Format/Info : Digital Theater Systems
Codec ID : A_DTS
Duration : 2h 6mn
Bit rate mode : Constant
Bit rate : 1 510 Kbps
Channel(s) : 6 channels
Channel positions : Front: L C R, Surround: L R, LFE
Sampling rate : 48.0 KHz
Resolution : 24 bits
Stream size : 1.33 GiB (8%)
Title : Французский DTS
Language : French

Audio #16
ID : 17
Format : DTS
Format/Info : Digital Theater Systems
Format profile : MA
Codec ID : A_DTS
Duration : 2h 6mn
Bit rate mode : Variable
Channel(s) : 6 channels
Channel positions : Front: L C R, Surround: L R, LFE
Sampling rate : 48.0 KHz
Resolution : 16 bits
Title : DTS-HD MA 48000Hz 6ch 2365 kbps, Lossless (corec DTS 48000Hz 6ch 1536 kbps)
Language : English

Audio #17
ID : 18
Format : DTS
Format/Info : Digital Theater Systems
Codec ID : A_DTS
Duration : 2h 6mn
Bit rate mode : Constant
Bit rate : 1 510 Kbps
Channel(s) : 6 channels
Channel positions : Front: L C R, Surround: L R, LFE
Sampling rate : 48.0 KHz
Resolution : 16 bits
Stream size : 1.33 GiB (8%)
Title : DTS 48000Hz 6ch 1536Kbps
Language : English

Text #1
ID : 19
Format : UTF-8
Codec ID : S_TEXT/UTF8
Codec ID/Info : UTF-8 Plain Text
Title : Русские(SRT)
Language : Russian

Text #2
ID : 20
Format : UTF-8
Codec ID : S_TEXT/UTF8
Codec ID/Info : UTF-8 Plain Text
Title : Английские(SRT)
Language : English

Text #3
ID : 21
Format : UTF-8
Codec ID : S_TEXT/UTF8
Codec ID/Info : UTF-8 Plain Text
Title : Субтитры в которых "переведены" надписи на экране и с конце на финальных титрах - список использованных в фильме музыкальных композиций.
Language : Russian



Свернуть


Последний раз редактировалось manhattan sandy 2012-11-17 17:22, всего редактировалось 5 раз(а).
Не в сети
Профиль  
 Добавлено: 2010-05-05 19:26 (спустя 22 часа)
Аватара пользователя
Стаж: 8 лет 6 месяцев
Возраст: 38
Сообщений: 40
Спасибок: 24
Спасибо, давно искал бдрип с дорогами НТВ и СТС
жаль скорость только маленькая очень :(((
Не в сети
Профиль  
 Добавлено: 2010-05-05 20:54 (спустя 1 час 28 минут)
Аватара пользователя
Стаж: 8 лет 7 месяцев
Сообщений: 2901
Спасибок: 4796
Лайков: 12
Перезалейте, пожалуйста, скриншоты и постер на любой из рекомендованных фотохостингов :
1. http://www.radikal.ru/
2. http://immage.de/
3. http://sendpic.ru/
Фотохостинги в нижегородском кольце больше не рекомендуются при оформлении релизов.
Причина

Также скриншоты должны быть полноразмерными, а не превью

После того, как исправите, или если у Вас появятся вопросы - напишите мне, пожалуйста, личное сообщение и обязательно укажите в нем ссылку эту тему.
_________________
Изображение Изображение
Не в сети
Профиль  
 Добавлено: 2010-05-05 22:16 (спустя 1 час 21 минута)
Дрeвнeйший торрeнтовщик
Аватара пользователя
Стаж: 9 лет 1 месяц
Возраст: 34
Сообщений: 1486
Спасибок: 4483
Лайков: 13
vovalenin

Ну батенька, это ADSL.

Может в ближайшее время брательнику дам копию, с дома ру раздаст.
Не в сети
Профиль  
 Добавлено: 2010-05-06 10:42 (спустя 12 часов)
Аватара пользователя
Стаж: 8 лет 6 месяцев
Возраст: 38
Сообщений: 40
Спасибок: 24
manhattan sandy
да я и не возмущаюсь, все прекрасно понимаю, тем более, как я понимаю, ты с ВТ раздаешь?
Не в сети
Профиль  
 Добавлено: 2010-05-06 22:29 (спустя 11 часов)
Дрeвнeйший торрeнтовщик
Аватара пользователя
Стаж: 9 лет 1 месяц
Возраст: 34
Сообщений: 1486
Спасибок: 4483
Лайков: 13
vovalenin
После переезда да((((((((((
Вот оптика сенди в 100 метрах от моего дома, но дотянуть к двум 9 кам им влом, бабок нету на построение сети. в доме полностью отсутствуют конкуренты (не считая воблы). Я бы сразу перешел бы, да и кабельное подключил бы.
Не в сети
Профиль  
 Добавлено: 2010-05-06 22:55 (спустя 25 минут)
Аватара пользователя
Стаж: 8 лет 8 месяцев
Сообщений: 1073
Спасибок: 37587
Лайков: 5
Вообще, по правилам, это повтор: viewtopic.php?f=1750&t=226794&hilit=%D1%8D%D0%BB%D0%B5%D0%BC%D0%B5%D0%BD%D1%82
Но учитывая количество дорог и наличие оригинальной дороги, думаю можно прикрыть глаза. Спасибо.
manhattan sandy
Битрейт укажите к каждой дороге.
Не в сети
Профиль  
 Добавлено: 2010-05-07 23:05 (спустя 1 день)
Дрeвнeйший торрeнтовщик
Аватара пользователя
Стаж: 9 лет 1 месяц
Возраст: 34
Сообщений: 1486
Спасибок: 4483
Лайков: 13
zotoff
Добавил!
Не в сети
Профиль  
 Добавлено: 2010-05-25 09:44 (спустя 17 дней)
Дрeвнeйший торрeнтовщик
Аватара пользователя
Стаж: 9 лет 1 месяц
Возраст: 34
Сообщений: 1486
Спасибок: 4483
Лайков: 13
Lord BfH я один раздавать материалы буду????????? Народ мне надоело раздавать на ADSL по 300-500% раздачи. Посидировать неделю-две ВАМ ВЛОМ????
Не в сети
Профиль  
 Добавлено: 2010-05-25 10:44 (спустя 59 минут)
Аватара пользователя
Стаж: 8 лет 7 месяцев
Сообщений: 2901
Спасибок: 4796
Лайков: 12
manhattan sandy
скачал 1 человек. это нормально. у нас часто качают и сваливают, ничего не поделать
_________________
Изображение Изображение
Не в сети
Профиль  
 Добавлено: 2012-11-17 17:20 (спустя 2 года 5 месяцев)
Дрeвнeйший торрeнтовщик
Аватара пользователя
Стаж: 9 лет 1 месяц
Возраст: 34
Сообщений: 1486
Спасибок: 4483
Лайков: 13
апну
_________________
Я помню http://bt.xi0.info
Не в сети
Профиль  
 Добавлено: 2013-09-04 18:18 (спустя 9 месяцев)
Аватара пользователя
Стаж: 9 лет
Сообщений: 81
Спасибок: 1357
Лайков: 2
граждане, раздайте кто-нибудь)
Не в сети
Профиль  
Начать новую темуОтветить на тему  [ Сообщений: 12 ] 
Вы не можете начинать темы
Вы не можете отвечать на сообщения
Вы не можете редактировать свои сообщения
Вы не можете удалять свои сообщения