Правила форума

  • В этом разделе создание новых тем Запрещено.
  • Для создания новых тем пользуйтесь Корневым разделом DVD и HD фильмы.
Начать новую темуОтветить на тему  [ Сообщений: 5 ] 
Торрент файл
Размер: 4.37 GB • Зарегистрирован: 2 года 7 месяцев • Статус: Проверено
Скачан: 29 раз • Желающих скачать: 0 • Поблагодарили: 11 раз
 Раздают: 2  |  0 KB/s  ]   Качают: 0  |  0 KB/s  ] 
Сообщения
 Добавлено: 2014-04-22 22:13
Аватара пользователя
Стаж: 3 года 2 месяца
Сообщений: 434
Спасибок: 1063
Лайков: 61
Радиоволна / Frequency (2001)

Изображение


Год выпуска: 2001
Страна: США
Жанр: Триллер, драма
Продолжительность: 01:58:59

Режиссёр: Грегори Хоблит
В ролях: Деннис Куэйд, Джеймс Кэвизел, Шоун Дойл, Элизабет Митчелл, Андре Брогер, Ноа Эммерик, Мелисса Эррико, Дэниэл Хенсон, Джордан Бриджес, Стефен Джофф
Описание: Полицейский Джон Салливэн случайно связывается по любительской радиостанции со своим покойным отцом, пожарным Фрэнком Салливэном, который умер во время тушения пожара много лет назад.

Бюджет: $31 000 000
Кассовые сборы: $68 106 245
Изображение 7.966 (8971)

Качество: BDRip 1080p (размер рипа 1xDVD5)
Формат: MKV
Видео кодек: MPEG4/AVC
Аудио кодек: AC3 (Dolby Digital)
Видео: MPEG-4 AVC Video, 4827 kbps, 1920х816, 23.976 fps, 16:9, High Profile 4.1
Аудио #1: Русский, AC3 Dolby Digital, 5.1ch, 448 kbps |Профессиональный (дубляж)|

Скриншоты
Изображение
Изображение
Изображение
Изображение
Изображение
Свернуть


Знаете ли Вы, что...
Во время съемок сцены на пожаре Дэнис Куэйд получил травму, стоившую ему 16 швов на голове чуть выше линии волос.
Свернуть


MediaInfo
General
Unique ID                        : 193888110884363681184670578642262308748 (0x91DD7DEA9F0D4D5BB37D4BE25882378C)
Complete name                    : H:\downloads\Радиоволна [Frequency.2000.D.R1.RP4]\Радиоволна [Frequency.2000.D.R1.RP4].mkv
Format                           : Matroska
Format version                   : Version 2
File size                        : 4.37 GiB
Duration                         : 1h 58mn
Overall bit rate                 : 5 276 Kbps
Movie name                       : rp4.su Радиоволна [Frequency.2000.D.R1.RP4]
Encoded date                     : UTC 2012-08-25 07:00:22
Writing application              : mkvmerge v5.7.0 ('The Whirlwind') built on Aug  7 2012 14:11:40
Writing library                  : libebml v1.2.3 + libmatroska v1.3.0

Video
ID                               : 1
Format                           : AVC
Format/Info                      : Advanced Video Codec
Format profile                   : High@L4.1
Format settings, CABAC           : Yes
Format settings, ReFrames        : 4 frames
Codec ID                         : V_MPEG4/ISO/AVC
Duration                         : 1h 58mn
Bit rate                         : 4 827 Kbps
Width                            : 1 920 pixels
Height                           : 816 pixels
Display aspect ratio             : 2.35:1
Frame rate                       : 23.976 fps
Color space                      : YUV
Chroma subsampling               : 4:2:0
Bit depth                        : 8 bits
Scan type                        : Progressive
Bits/(Pixel*Frame)               : 0.129
Stream size                      : 3.91 GiB (90%)
Title                            : Радиоволна [Frequency.2000.D.R1.RP4]
Writing library                  : x264 core 125 r2208 d9d2288
Encoding settings                : cabac=1 / ref=5 / deblock=1:-1:-1 / analyse=0x3:0x133 / me=umh / subme=7 / psy=1 / psy_rd=1.00:0.15 / mixed_ref=1 / me_range=16 / chroma_me=1 / trellis=1 / 8x8dct=1 / cqm=0 / deadzone=21,11 / fast_pskip=1 / chroma_qp_offset=-3 / threads=6 / lookahead_threads=1 / sliced_threads=0 / nr=0 / decimate=1 / interlaced=0 / bluray_compat=0 / constrained_intra=0 / bframes=3 / b_pyramid=1 / b_adapt=2 / b_bias=0 / direct=3 / weightb=1 / open_gop=0 / weightp=2 / keyint=240 / keyint_min=23 / scenecut=40 / intra_refresh=0 / rc_lookahead=60 / rc=2pass / mbtree=1 / bitrate=4827 / ratetol=1.0 / qcomp=0.60 / qpmin=10 / qpmax=51 / qpstep=4 / cplxblur=20.0 / qblur=0.5 / ip_ratio=1.40 / aq=1:1.00 / zones=163731,170685,q=40
Language                         : Russian

Audio
ID                               : 2
Format                           : AC-3
Format/Info                      : Audio Coding 3
Mode extension                   : CM (complete main)
Codec ID                         : A_AC3
Duration                         : 1h 58mn
Bit rate mode                    : Constant
Bit rate                         : 448 Kbps
Channel(s)                       : 6 channels
Channel positions                : Front: L C R, Side: L R, LFE
Sampling rate                    : 48.0 KHz
Bit depth                        : 16 bits
Compression mode                 : Lossy
Stream size                      : 380 MiB (8%)
Title                            : Дубляж AC3 448kbps
Language                         : Russian

Свернуть

Релиз: rp4 . su
Не в сети
Профиль  
 Добавлено: 2014-04-22 22:30 (спустя 17 минут)
Аватара пользователя
Стаж: 7 лет 4 месяца
Возраст: 25
Сообщений: 2654
Спасибок: 532
Лайков: 81
Из описания что то новенькое))))
_________________
Заработок кредитов для онлайн игр
Не в сети
Профиль  
 Добавлено: 2014-04-22 22:38 (спустя 8 минут)
Аватара пользователя
Стаж: 8 лет 9 месяцев
Сообщений: 1170
Спасибок: 1294
Лайков: 7
ваще-т фильм старая бомба!
Не в сети
Профиль  
 Добавлено: 2014-04-26 01:57 (спустя 3 дня)
Стаж: 7 лет 5 месяцев
Возраст: 32
Сообщений: 71
Лайков: 1
фильм стоит внимания :a_g_a:
Не в сети
Профиль  
 Добавлено: 2014-06-04 15:06 (спустя 1 месяц 8 дней)
Стаж: 8 лет 2 месяца
Сообщений: 11
Спасибок: 24
Да, фильм отличный!
Не в сети
Профиль  
Начать новую темуОтветить на тему  [ Сообщений: 5 ] 
Вы не можете начинать темы
Вы не можете отвечать на сообщения
Вы не можете редактировать свои сообщения
Вы не можете удалять свои сообщения