Правила форума

  • В этом разделе создание новых тем Запрещено.
  • Для создания новых тем пользуйтесь Корневым разделом DVD и HD фильмы.
Начать новую темуОтветить на тему  [ Сообщений: 2 ] 
Торрент файл
Размер: 3.21 GB • Зарегистрирован: 2 года 9 месяцев • Статус: T Временный релиз
Скачан: 8 раз • Желающих скачать: 0 • Поблагодарили: 9 раз
 Раздают: 0  |  0 KB/s  ]   Качают: 0  |  0 KB/s  ] 
 Полного источника не было 1 год 9 месяцев 
Сообщения
 Добавлено: 2014-03-07 21:56
Модератор
Аватара пользователя
Стаж: 8 лет 2 месяца
Возраст: 30
Сообщений: 3200
Спасибок: 2960
Лайков: 206
Ранчо Халява / Buck Wild

«Three friends, one cousin, and a hunting vacation to die for»

Изображение


Название: Ранчо Халява
Оригинальное название: Buck Wild
Год выхода: 2013
Выпущено: США
Продолжительность: 01:35:28
Озвучивание: Любительское (многоголосое) [ViruseProject] /Original
Жанр: ужасы, комедия
Режиссер: Тайлер Глодт
В ролях: Мэг Чионни, Джо Стивенс, Амелия Мейерс, Мэттью Альбрехт, Марк Форд, Джаррод Пистилли, Тайлер Глодт, Дрю Локвуд, Исаак Харрисон
Изображение
Описание фильма:
Крейг Томпсон вытягивает своих друзей: Тома, Лэнса и кузена Джерри на охоту на ранчо "ХАЛЯВА", которое находится у чёрта на куличках. Планируя не только отдохнуть по человечески, но и раскрыть своим друзьям, что он хочет жениться на девушке с которой живет уже 6 лет. В итоге выясняется, что девушка Крейга еще та "гулящая особа", так еще и постоянно изменяла ему с лучшим другом - Лэнсом. И пока у них идет своя комедийная драма, вокруг быстрым ходом распространяется вирус "Чупакабра", который превращает всех жителей ближайшей деревни и соседних ранчо в нежить/зомби. После чего ребятишкам приходится выживать в этой кровавой бане юмора!
Изображение
Дата мировой премьеры: 18 марта 2014

Формат: MKV
Качество: WEB-DL 720p
Видео: 3952 Kb/s, 1280x536
Аудио: Russian / English: AC3, 384 kb/s (6 ch) Любительское (многоголосое) [ViruseProject] / Original
Cубтитры: English
Изображение
ИзображениеИзображениеИзображениеИзображение
Buck Wild Movie - OFFICIAL TRAILER 2014

Свернуть

MediaInfo
General
Unique ID : 193511880434486997898108686633270745824 (0x91950852BAA734C48C30B35AEFD79AE0)
Format : Matroska
Format version : Version 4 / Version 2
File size : 3.21 GiB
Duration : 1h 35mn
Overall bit rate : 4 815 Kbps
Encoded date : UTC 2014-03-07 15:53:29
Writing application : mkvmerge v6.1.0 ('Old Devil') built on Mar 4 2013 09:10:42
Writing library : libebml v1.3.0 + libmatroska v1.4.0
Video #1
ID : 1
Format : AVC
Format/Info : Advanced Video Codec
Format profile : Main@L3.1
Format settings, CABAC : No
Format settings, ReFrames : 2 frames
Codec ID : V_MPEG4/ISO/AVC
Duration : 1h 35mn
Bit rate : 3 952 Kbps
Width : 1 280 pixels
Height : 536 pixels
Display aspect ratio : 2.40:1
Frame rate mode : Constant
Frame rate : 23.976 fps
Color space : YUV
Chroma subsampling : 4:2:0
Bit depth : 8 bits
Scan type : Progressive
Bits/(Pixel*Frame) : 0.240
Stream size : 2.64 GiB (82%)
Language : English
Default : Yes
Forced : No
Color primaries : BT.709
Transfer characteristics : BT.709
Matrix coefficients : BT.709
Audio #2
ID : 2
Format : AC-3
Format/Info : Audio Coding 3
Mode extension : CM (complete main)
Format settings, Endianness : Big
Codec ID : A_AC3
Duration : 1h 35mn
Bit rate mode : Constant
Bit rate : 384 Kbps
Channel(s) : 6 channels
Channel positions : Front: L C R, Side: L R, LFE
Sampling rate : 48.0 KHz
Bit depth : 16 bits
Compression mode : Lossy
Stream size : 262 MiB (8%)
Language : Russian
Default : Yes
Forced : No
Audio #3
ID : 3
Format : AC-3
Format/Info : Audio Coding 3
Mode extension : CM (complete main)
Format settings, Endianness : Big
Codec ID : A_AC3
Duration : 1h 35mn
Bit rate mode : Constant
Bit rate : 384 Kbps
Channel(s) : 6 channels
Channel positions : Front: L C R, Side: L R, LFE
Sampling rate : 48.0 KHz
Bit depth : 16 bits
Compression mode : Lossy
Stream size : 262 MiB (8%)
Language : English
Default : No
Forced : No
Text #4
ID : 4
Format : UTF-8
Codec ID : S_TEXT/UTF8
Codec ID/Info : UTF-8 Plain Text
Language : English
Default : No
Forced : No
Свернуть
Скриншоты
Изображение
Изображение
Изображение
Изображение
Свернуть


Изображение

Изображение
_________________

ИзображениеПравила Создание релизов от А до Я


Последний раз редактировалось TooGooD 2014-03-08 18:45, всего редактировалось 1 раз.
Не в сети
Профиль  
 Добавлено: 2014-03-08 18:39 (спустя 20 часов)
Модератор
Аватара пользователя
Стаж: 8 лет 2 месяца
Возраст: 30
Сообщений: 3200
Спасибок: 2960
Лайков: 206
Перевод просто убил наповал ;;-))) ("Папа ЕПТА-мои тюльпанчики")
_________________

ИзображениеПравила Создание релизов от А до Я
Не в сети
Профиль  
Начать новую темуОтветить на тему  [ Сообщений: 2 ] 
Вы не можете начинать темы
Вы не можете отвечать на сообщения
Вы не можете редактировать свои сообщения
Вы не можете удалять свои сообщения