Правила форума

  • В этом разделе создание новых тем Запрещено.
  • Для создания новых тем пользуйтесь Корневым разделом DVD и HD фильмы.
Начать новую темуОтветить на тему  [ Сообщений: 5 ] 
Торрент файл
Размер: 4.37 GB • Зарегистрирован: 4 года 10 месяцев • Статус: Проверено
Скачан: 70 раз • Желающих скачать: 0 • Поблагодарили: 16 раз
 Раздают: 0  |  0 KB/s  ]   Качают: 0  |  0 KB/s  ] 
 Полного источника не было 2 года 10 месяцев 
Сообщения
 Добавлено: 2012-01-30 22:45
Книголюб
Аватара пользователя
Стаж: 7 лет 2 месяца
Сообщений: 2823
Спасибок: 48826
Лайков: 73
Расплата
The Debt

Изображение


Год выпуска: 2010
Страна: США
Жанр: триллер, драма
Продолжительность: 01:46:50
Перевод: Профессиональный (дубляж)

Режиссёр: Джон Мэдден
В ролях: Хелен Миррен, Том Уилкинсон, Кьяран Хайндс, Роми Абулафиа, Томер Бен Дэвид, Охев Бен Дэвид, Джонатан Узил, Эли Зохар, Ирен Бордан, Джессика Честейн.
Описание: В фильме рассказывается о трёх молодых агентах «Моссада» на секретном задании, которые в 1965 году похищают и убивают известного нацистского преступника. Тридцать лет спустя на Украине объявляется человек, обвинённый в нацизме, и одному из бывших агентов приходится вернуться к своей деятельности, чтобы докопаться до правды.
Рейтинг MPAA: Рейтинг R (Подростки до 17 лет допускаются на фильм только в сопровождении одного из родителей)
Бюджет: $20 000 000
Изображение 6.931 1 403

Качество: BQRip 1080p
Формат: MKV
Видео кодек: H.264
Аудио кодек: AC3 (Dolby Digital)
Видео: 1920x800 23.98fps 5 126 Kbps 0.139Bits/Pixel
Аудио #1: 48000Hz 6ch
MediaInfo
eneral
Unique ID : 185227175182855374966373843189748513624 (0x8B5974D16165466584B759E4C6C0BB58)
Complete name : D:\The.Debt.2010.mkv
Format : Matroska
Format version : Version 2
File size : 4.37 GiB
Duration : 1h 53mn
Overall bit rate : 5 511 Kbps
Movie name : Rip by Blo
Encoded date : UTC 2012-01-28 18:31:00
Writing application : mkvmerge v3.2.0 ('Beginnings') built on Feb 12 2010 16:46:17
Writing library : libebml v0.7.9 + libmatroska v0.8.1

Video
ID : 1
Format : AVC
Format/Info : Advanced Video Codec
Format profile : High@L4.0
Format settings, CABAC : Yes
Format settings, ReFrames : 2 frames
Codec ID : V_MPEG4/ISO/AVC
Duration : 1h 53mn
Bit rate : 5 126 Kbps
Width : 1 920 pixels
Height : 800 pixels
Display aspect ratio : 2.40:1
Frame rate mode : Variable
Frame rate : 23.976 fps
Color space : YUV
Chroma subsampling : 4:2:0
Bit depth : 8 bits
Scan type : Progressive
Bits/(Pixel*Frame) : 0.139
Stream size : 3.98 GiB (91%)
Title : Расплата
Writing library : x264 core 112 r1834 a51816a
Encoding settings : cabac=1 / ref=2 / deblock=1:0:0 / analyse=0x3:0x113 / me=hex / subme=6 / psy=1 / psy_rd=1.00:0.00 / mixed_ref=0 / me_range=16 / chroma_me=1 / trellis=0 / 8x8dct=1 / cqm=0 / deadzone=21,11 / fast_pskip=1 / chroma_qp_offset=-2 / threads=4 / sliced_threads=0 / nr=0 / decimate=1 / interlaced=0 / constrained_intra=0 / bframes=3 / b_pyramid=0 / b_adapt=1 / b_bias=0 / direct=3 / weightb=1 / open_gop=0 / weightp=2 / keyint=250 / keyint_min=25 / scenecut=40 / intra_refresh=0 / rc_lookahead=40 / rc=2pass / mbtree=1 / bitrate=5126 / ratetol=1.0 / qcomp=0.60 / qpmin=10 / qpmax=51 / qpstep=4 / cplxblur=20.0 / qblur=0.5 / ip_ratio=1.41 / aq=1:1.00
Language : English
Default : Yes
Forced : No

Audio
ID : 2
Format : AC-3
Format/Info : Audio Coding 3
Mode extension : CM (complete main)
Codec ID : A_AC3
Duration : 1h 53mn
Bit rate mode : Constant
Bit rate : 384 Kbps
Channel(s) : 6 channels
Channel positions : Front: L C R, Side: L R, LFE
Sampling rate : 48.0 KHz
Bit depth : 16 bits
Compression mode : Lossy
Stream size : 312 MiB (7%)
Title : (AC3, 6 ch, 384 Кбит/с)
Language : Russian
Default : Yes
Forced : No


Свернуть

Скриншоты
Изображение
Изображение
Изображение
Свернуть
Не в сети
Профиль  
 Добавлено: 2012-01-31 21:22 (спустя 22 часа)
Кинокомментатор
Аватара пользователя
Стаж: 9 лет 1 месяц
Сообщений: 1332
Лайков: 54
ну кино, несомненно большое!) масштабное, на целую жизнь! мне понравилось) всё интересно, не много растянуто, что со всем не плохо! и очень хорошо сыграно! просто очень даже качественно!
8/10
_________________
Я ВКонтакте
Не в сети
Профиль  
 Добавлено: 2012-02-01 22:22 (спустя 1 день 1 час)
Аватара пользователя
Стаж: 9 лет 1 месяц
Возраст: 26
Сообщений: 58
Спасибок: 289
Че за?где роли?почему вместо ролей повторное описание сюжета?
Не в сети
Профиль  
 Добавлено: 2012-02-02 22:20 (спустя 23 часа)
Аватара пользователя
Стаж: 6 лет 9 месяцев
Сообщений: 92
так себе фильм!
Не в сети
Профиль  
 Добавлено: 2012-03-15 16:49 (спустя 1 месяц 12 дней)
Аватара пользователя
Стаж: 8 лет 11 месяцев
Возраст: 27
Сообщений: 721
Спасибок: 5528
Лайков: 1
начало нудное, но к середине фильма становится интересно :)
_________________
Изображение
Не в сети
Профиль  
Начать новую темуОтветить на тему  [ Сообщений: 5 ] 
Вы не можете начинать темы
Вы не можете отвечать на сообщения
Вы не можете редактировать свои сообщения
Вы не можете удалять свои сообщения