Правила форума

  • В этом разделе создание новых тем Запрещено.
  • Для создания новых тем пользуйтесь Корневым разделом DVD и HD фильмы.
Начать новую темуОтветить на тему  [ 1 сообщение ] 
Торрент файл
Размер: 4.32 GB • Зарегистрирован: 4 года 4 месяца • Статус: Проверено
Скачан: 11 раз • Желающих скачать: 0 • Поблагодарили: 5 раз
 Раздают: 0  |  0 KB/s  ]   Качают: 0  |  0 KB/s  ] 
 Полного источника не было 1 год 9 месяцев 
Сообщения
 Добавлено: 2012-07-27 17:46
Top-releaser
Аватара пользователя
Стаж: 6 лет 7 месяцев
Сообщений: 2078
Спасибок: 3230
Лайков: 9
Изображение

Разборка в Бронксе / Hong faan kui


Год выпуска: 1995
Страна: Канада, Гонконг
Слоган: «No Fear. No Stuntman. No Equal»
Жанр: боевик, триллер, комедия, криминал
Продолжительность: 01:25:02
Перевод: Профессиональный (многоголосый, закадровый)
Режиссер: Стэнли Тонг
Сценарий: Эдвард Тэнг, Фибе Ма
Продюсер: Рэймонд Чоу, Роберта Чоу, Леонард Хо, Джонни Ли, Шан Там
Оператор: Джингл Ма
Композитор: Дж. Питер Робинсон, Натан Ванг
В ролях: Джеки Чан, Анита Муи, Франсуаза Йип, Билл Тун, Марк Экерстрим, Гарвин Кросс, Морган Лам, Эйлен Сит, Чан Ман Чинг, Fred Andrucci, Mark Antoniuk, Лауро Чартрэнд
Описание: Кеунг, полицейский из Гонконга, приезжает к своему дяде в Америку на свадьбу. Дядя как раз продал свой супермаркет красивой китаянке, ни слова не сказав новой хозяйке о том, что на магазин имеют виды бандиты, и уехал. Кеунг, конечно же, заступается за симпатичную бизнес-леди и устраивает рэкетирам разборку. Но на этом подвиги азиатского полицейского в нью-йоркских кварталах не заканчиваются! Кеунг начинает жесткое противостояние гангстерам в деле о пропаже бриллиантов
Изображение
Раздача группы: Изображение
Качество: HDTVRip, 720p
Формат: Matroska
Видео:AVC; 1280x512 (2.500); 6365 Kbps; 25 fps; 0,389 bit/pixel
Аудио #1: Russian; AC3; 384 Kbps; CBR; 6 ch
Аудио #2: English; AC3; 384 Kbps; CBR; 6 ch - Оригинал (отдельным файлом)

"Знаете ли Вы, что..."
  • При прыжке с моста на судно на воздушной подушке Джеки Чан повредил кости бедра, голени, голеностопного сустава, сломал левую лодыжку, получил открытый перелом пальцев ноги. Заканчивая съемку, Джеки надевал на гипс носок, раскрашенный под кроссовок.
Свернуть
MediaInfo
Общее
Уникальный идентификатор : 211204144126216476365875128346102821287 (0x9EE47045263DAFD99AD32F0DBD6971A7)
Полное имя : Z:\WWW\TR-Downloads\Rumble In The Bronx.720p[R.G.Daredevil]\Rumble.in.the.Bronx.HDTVRip.720p.mkv
Формат : Matroska
Версия формата : Version 2
Размер файла : 4,09 Гбайт
Продолжительность : 1 ч. 25 м.
Общий поток : 6886 Кбит/сек
Дата кодирования : UTC 2011-03-08 10:09:42
Программа кодирования : mkvmerge v2.9.8 ('C'est le bon') built on Aug 13 2009 12:49:06
Библиотека кодирования : libebml v0.7.7 + libmatroska v0.8.1

Видео
Идентификатор : 1
Формат : AVC
Формат/Информация : Advanced Video Codec
Профиль формата : High@L4.1
Параметр CABAC формата : Да
Параметр ReFrames формата : 8 кадров
Идентификатор кодека : V_MPEG4/ISO/AVC
Продолжительность : 1 ч. 25 м.
Битрейт : 6500 Кбит/сек
Ширина : 1280 пикселей
Высота : 512 пикселей
Соотношение сторон : 2,500
Частота кадров : 25,000 кадров/сек
Цветовое пространство : YUV
Субдискретизация насыщенности : 4:2:0
Битовая глубина : 8 бит
Тип развёртки : Прогрессивная
Бит/(Пиксели*Кадры) : 0.397
Размер потока : 3,78 Гбайт (92%)
Библиотека кодирования : x264 core 112 r1867 22bfd31
Настройки программы : cabac=1 / ref=8 / deblock=1:-3:-3 / analyse=0x3:0x113 / me=umh / subme=9 / psy=1 / psy_rd=1.05:0.10 / mixed_ref=1 / me_range=32 / chroma_me=1 / trellis=2 / 8x8dct=1 / cqm=0 / deadzone=6,6 / fast_pskip=0 / chroma_qp_offset=-5 / threads=2 / sliced_threads=0 / nr=0 / decimate=0 / interlaced=0 / constrained_intra=0 / bframes=3 / b_pyramid=2 / b_adapt=2 / b_bias=0 / direct=0 / weightb=1 / open_gop=0 / weightp=2 / keyint=250 / keyint_min=25 / scenecut=40 / intra_refresh=0 / rc_lookahead=60 / rc=2pass / mbtree=1 / bitrate=6500 / ratetol=1.0 / qcomp=0.60 / qpmin=10 / qpmax=51 / qpstep=4 / cplxblur=20.0 / qblur=0.5 / vbv_maxrate=50000 / vbv_bufsize=50000 / nal_hrd=none / ip_ratio=1.10 / aq=1:0.60
Язык : English
Default : Нет
Forced : Нет

Аудио
Идентификатор : 2
Формат : AC-3
Формат/Информация : Audio Coding 3
Расширение режима : CM (complete main)
Параметр Endianness формата : Big
Идентификатор кодека : A_AC3
Продолжительность : 1 ч. 25 м.
Вид битрейта : Постоянный
Битрейт : 384 Кбит/сек
Каналы : 6 каналов
Расположение каналов : Front: L C R, Side: L R, LFE
Частота : 48,0 КГц
Битовая глубина : 16 бит
Метод сжатия : С потерями
Размер потока : 234 Мбайт (6%)
Заголовок : MVO
Язык : Russian
Default : Да
Forced : Нет
Свернуть
Скриншоты
Изображение
Изображение
Изображение
Изображение
Изображение
Свернуть
Не в сети
Профиль  
Начать новую темуОтветить на тему  [ 1 сообщение ] 
Вы не можете начинать темы
Вы не можете отвечать на сообщения
Вы не можете редактировать свои сообщения
Вы не можете удалять свои сообщения