Правила форума

  • В этом разделе создание новых тем Запрещено.
  • Для создания новых тем пользуйтесь Корневым разделом DVD и HD фильмы.
Начать новую темуОтветить на тему  [ Сообщений: 2 ] 
Торрент файл
Размер: 12.03 GB • Зарегистрирован: 4 года 7 месяцев • Статус: T Временный релиз
Скачан: 26 раз • Желающих скачать: 0 • Поблагодарили: 8 раз
 Раздают: 0  |  0 KB/s  ]   Качают: 0  |  0 KB/s  ] 
 Полного источника не было 2 года 10 месяцев 
Сообщения
 Добавлено: 2012-04-16 18:34
Модератор
Аватара пользователя
Стаж: 8 лет 1 месяц
Сообщений: 1991
Спасибок: 129863
Лайков: 20
Разделитель / The Divide


«To survive the end of the world you must first survive each other.»



Изображение
Год выпуска: 2011
Страна: Изображение США, Изображение Германия, Изображение Канада
Жанр: ужасы, фантастика, триллер
Продолжительность:
02:02:14

Перевод: Одноголосый закадровый |den904|, Одноголосый закадровый |М. Бирюков|,
Любительский (двухголосый закадровый) |Чип и Дейл|, оригинальный


Режиссер: Ксавьер Генс
Сценарий: Карл Мюллер, Eron Sheean
Продюсер: Натаниель Ролло, Даррин Уэлш, Росс М. Динерштейн, Джульетт Хагопиан, Джэми Кармайкл
Оператор: Лоран Барес
Композитор: Жан-Пьер Тайеб

В ролях:
Майло Вентимилья (Josh), Майкл Бьен (Mickey), Лорен Джерман (Eva), Кортни Б. Вэнс (Delvin), Эштон Холмс (Adrien), Розанна Аркетт (Marilyn), Иван Гонзалез (Sam), Майкл Эклунд (Bobby), Abbey Thickson (Wendi), Дженнифер Бланк (Liz)

Описание: События фильма разворачиваются в подвале одного из зданий в Нью-Йорке, который стал своего рода спасательным бункером для восьмерых людей, когда город был разрушен в результате мощного взрыва неизвестного происхождения.


Изображение: 6.082 (1 268)
Изображение: 6.10 (5 869)

MPAA: Изображение - Лицам до 17 лет обязательно присутствие взрослого

Доп. Информация
Мировая премьера: 13 марта 2011

Свернуть


Качество: BDRip 1080p

Формат: MKV
Видео: AVC; 1920x816 (2.35:1); 11500 Kbps; 24 fps; 0,306 bpp
Аудио №1: Russian; AC3; 384 Kbps; CBR; 6 ch; 16 bit |Den904|
Аудио №2: Russian; AC3; 192 Kbps; CBR; 2 ch; 16 bit |М. Бирюков|
Аудио №3: Russian; AC3; 320 Kbps; CBR; 2 ch; 16 bit |Чип и Дейл|
Аудио №4: English; DTS; 1509 Kbps; CBR; 6 ch; 24 bit
Аудио №5: English; AC3; 192 Kbps; CBR; 2 ch; 16 bit |comentary|
Cубтитры: русские (KeRoB, Vika3, carrion87), английские

в дорожке DVO- Чип и Дейл есть пропуски с таймингом
12 минута
56 минута
01 час 03 минуты
01 час 30 минут
01 час 35 минут
Изображение


BDInfo
Общее
Уникальный идентификатор : 170695294724558798353986445675175462247 (0x806AB7CB6A0423E4811489A3D0B1C567)
Полное имя : G:\user\RAZDELITEL\The.Divide.2011.BDRip1080p\The.Divide.2011.BDRip1080p.mkv
Формат : Matroska
Версия формата : Version 2
Размер файла : 12,0 Гбайт
Продолжительность : 2 ч. 2 м.
Общий поток : 14,1 Мбит/сек
Дата кодирования : UTC 2012-04-09 12:12:41
Программа кодирования : mkvmerge v4.9.1 ('Ich will') сборка от Aug 10 2011 09:31:20
Библиотека кодирования : libebml v1.2.1 + libmatroska v1.2.0
Видео
Идентификатор : 1
Формат : AVC
Формат/Информация : Advanced Video Codec
Профиль формата : High@L4.1
Параметр CABAC формата : Да
Параметр ReFrames формата : 5 кадров
Идентификатор кодека : V_MPEG4/ISO/AVC
Продолжительность : 2 ч. 2 м.
Битрейт : 11,5 Мбит/сек
Ширина : 1920 пикс.
Высота : 816 пикс.
Соотношение сторон : 2,35:1
Частота кадров : 24,000 кадр/сек
Цветовое пространство : YUV
Подвыборка цветности : 4:2:0
Битовая глубина : 8 бит
Тип развёртки : Прогрессивная
Бит/(Пиксели*Кадры) : 0.306
Размер потока : 9,57 Гбайт (80%)
Библиотека кодирования : x264 core 116 r2074 2641b9e
Настройки программы : cabac=1 / ref=5 / deblock=1:-3:-3 / analyse=0x3:0x113 / me=umh / subme=9 / psy=1 / psy_rd=1.00:0.15 / mixed_ref=1 / me_range=48 / chroma_me=1 / trellis=2 / 8x8dct=1 / cqm=0 / deadzone=21,11 / fast_pskip=0 / chroma_qp_offset=-3 / threads=6 / sliced_threads=0 / nr=0 / decimate=1 / interlaced=0 / bluray_compat=0 / constrained_intra=0 / bframes=8 / b_pyramid=2 / b_adapt=2 / b_bias=0 / direct=3 / weightb=1 / open_gop=0 / weightp=2 / keyint=250 / keyint_min=23 / scenecut=40 / intra_refresh=0 / rc=2pass / mbtree=0 / bitrate=11500 / ratetol=1.0 / qcomp=0.60 / qpmin=0 / qpmax=69 / qpstep=4 / cplxblur=20.0 / qblur=0.5 / ip_ratio=1.40 / pb_ratio=1.30 / aq=2:1.00
Язык : English
Аудио #1
Идентификатор : 2
Формат : AC-3
Формат/Информация : Audio Coding 3
Расширение режима : CM (complete main)
Идентификатор кодека : A_AC3
Продолжительность : 2 ч. 2 м.
Вид битрейта : Постоянный
Битрейт : 384 Кбит/сек
Каналы : 6 каналов
Расположение каналов : Front: L C R, Side: L R, LFE
Частота : 48,0 КГц
Битовая глубина : 16 бит
Метод сжатия : С потерями
Размер потока : 336 Мбайт (3%)
Заголовок : Одноголосый закадровый |den904|
Язык : Russian
Аудио #2
Идентификатор : 3
Формат : AC-3
Формат/Информация : Audio Coding 3
Расширение режима : CM (complete main)
Идентификатор кодека : A_AC3
Продолжительность : 2 ч. 2 м.
Вид битрейта : Постоянный
Битрейт : 192 Кбит/сек
Каналы : 2 канала
Расположение каналов : Front: L R
Частота : 48,0 КГц
Битовая глубина : 16 бит
Метод сжатия : С потерями
Размер потока : 168 Мбайт (1%)
Заголовок : Одноголосый закадровый |М. Бирюков|
Язык : Russian
Аудио #3
Идентификатор : 4
Формат : AC-3
Формат/Информация : Audio Coding 3
Расширение режима : CM (complete main)
Идентификатор кодека : A_AC3
Продолжительность : 2 ч. 2 м.
Вид битрейта : Постоянный
Битрейт : 320 Кбит/сек
Каналы : 2 канала
Расположение каналов : Front: L R
Частота : 48,0 КГц
Битовая глубина : 16 бит
Метод сжатия : С потерями
Размер потока : 280 Мбайт (2%)
Заголовок : Любительский (двухголосый закадровый)[Озвучка: Команда Чип и Дейл]
Язык : Russian
Аудио #4
Идентификатор : 5
Формат : DTS
Формат/Информация : Digital Theater Systems
Идентификатор кодека : A_DTS
Продолжительность : 2 ч. 2 м.
Вид битрейта : Постоянный
Битрейт : 1510 Кбит/сек
Каналы : 6 каналов
Расположение каналов : Front: L C R, Side: L R, LFE
Частота : 48,0 КГц
Битовая глубина : 24 бит
Метод сжатия : С потерями
Размер потока : 1,29 Гбайт (11%)
Язык : English
Аудио #5
Идентификатор : 6
Формат : AC-3
Формат/Информация : Audio Coding 3
Расширение режима : CM (complete main)
Идентификатор кодека : A_AC3
Продолжительность : 2 ч. 2 м.
Вид битрейта : Постоянный
Битрейт : 192 Кбит/сек
Каналы : 2 канала
Расположение каналов : Front: L R
Частота : 48,0 КГц
Битовая глубина : 16 бит
Метод сжатия : С потерями
Размер потока : 168 Мбайт (1%)
Заголовок : comentary
Язык : English
Текст #1
Идентификатор : 7
Формат : UTF-8
Идентификатор кодека : S_TEXT/UTF8
Идентификатор кодека/Информация : UTF-8 Plain Text
Заголовок : KeRoB, Vika3, carrion87
Язык : Russian
Текст #2
Идентификатор : 8
Формат : UTF-8
Идентификатор кодека : S_TEXT/UTF8
Идентификатор кодека/Информация : UTF-8 Plain Text
Язык : English
Меню
00:00:00.000 : en:CHAPTER01
00:04:04.327 : en:CHAPTER02
00:15:55.580 : en:CHAPTER03
00:27:22.599 : en:CHAPTER04
00:39:36.624 : en:CHAPTER05
00:50:05.002 : en:CHAPTER06
01:02:02.719 : en:CHAPTER07
01:09:37.090 : en:CHAPTER08
01:22:29.403 : en:CHAPTER09
01:34:27.996 : en:CHAPTER10
01:48:33.298 : en:CHAPTER11
01:58:58.089 : en:CHAPTER12
Свернуть
Скриншоты
Изображение
Изображение
Изображение
Свернуть

_________________
Себе ты можешь не качать, но раздавать другим обязан!
Не в сети
Профиль  
 Добавлено: 2012-05-19 11:24 (спустя 1 месяц 2 дня)
Аватара пользователя
Стаж: 7 лет 6 месяцев
Возраст: 51
Сообщений: 1782
Лайков: 1401
Фильм - типичная канадская троечка. Сюжет - был уже сто раз. Бюджет - пять копеек. Метраж - безбожно растянут, смело можно убрать оттуда минуток 30, а то и 45, и тогда потянуло бы на четверку. Я вот ни хрена не понимаю режиссеров, которые держатся за каждую соплю в своем безобразно длинном фильме. Кино может быть и три часа длиной, но тогда (как и в любом фильме) он должен быть как выстрел в сердце. Сразу и наповал. Тогда, убойный, хоть и трехчасовой фильм смотрится на одном дыхании; а какую-нибудь 25-минутную короткометражку, не содержащую ничего, кроме самовыражения автора, не знающего, что ему сказать, и не умеющего этого, смотришь, как подвешенный на дыбе, и самый счастливый миг - когда эта херня кончается и можно бегом вынестись из кинозала и с облегчением покурить. Говно, как говорится, всплыло.

Но вот про этот самый фильм, конкретно "Разделитель", несмотря на его очевидные недостатки, хочу я замолвить несколько хороших слов. Там есть немало отличных и колоритных актеров, удивительно интересно отыгрывающих свои роли. Там есть явная диалектика развития персонажей (к сожалению, наступающая так нескоро, что постоянно приходится жать кнопку перемотки). Есть вполне грамотная операторская работа. И сюжет-то написан неплохо, только снят коряво. В общем, фильм для просмотра вполне пригоден! И даже запомнится. Смотрите, камрады.

Только даю один совет: если вам кажется, что затянуто, и в ближайшие минуты ничего не произойдет, смело жмите кнопку перемотки. Фильм затянут безбожно.
Не в сети
Профиль  
Начать новую темуОтветить на тему  [ Сообщений: 2 ] 
Вы не можете начинать темы
Вы не можете отвечать на сообщения
Вы не можете редактировать свои сообщения
Вы не можете удалять свои сообщения