Правила форума

  • В этом разделе создание новых тем Запрещено.
  • Для создания новых тем пользуйтесь Корневым разделом DVD и HD фильмы.
Начать новую темуОтветить на тему  [ Сообщений: 6 ] 
Торрент файл
Размер: 20.69 GB • Зарегистрирован: 4 года 7 месяцев • Статус: T Временный релиз
Скачан: 88 раз • Желающих скачать: 0 • Поблагодарили: 17 раз
 Раздают: 0  |  0 KB/s  ]   Качают: 0  |  0 KB/s  ] 
 Полного источника не было 2 года 4 месяца 
Сообщения
 Добавлено: 2012-04-07 09:07
Модератор релиз-группы
Аватара пользователя
Стаж: 9 лет 1 месяц
Возраст: 97
Сообщений: 11659
Спасибок: 6532
Лайков: 269
Разделитель / The Divide

Изображение


Год выпуска: 2011
Страна: США, Германия, Канада
Жанр: ужасы, постапокалипсис
Продолжительность: 02:02:14
Перевод: Любительский (одноголосый закадровый) [den90]
Любительский (двухголосый закадровый) [ Chip and Dale]
Любительский (одноголосый закадровый)[Biryukov]
Субтитры: Русские

Режиссёр: Ксавьер Генс / Xavier Gens
В ролях: Лорен Джерман, Майкл Бьен, Майло Вентимилья, Кортни Б. Вэнс, Эштон Холмс, Розанна Аркетт, Иван Гонзалез, Майкл Эклунд, Дженнифер Бланк
Описание: Ядерный удар по Нью-Йорку, кто бы мог подумать. Что это, месть Японии за Хиросиму и Нагосаки.. Сюжет фильма строится вокруг восьми людей, которым удалось укрыться в подвале одного здания, но это не просто подвал, это бункер - убежище от атомного удара. Супер квартиростройщик и хозяин бункера - Микки, вероятно знал о возможности нападения. Стальная дверь бункера закрыта и нет пути назад. В ожидании спасателей никто не расчитывал увидеть войнов - солдат, которые вскрыли дверь, в скафандрах и с оружием, сверкающих лазерными прицелами. Солдаты стали стрелять, люди разбежались по комнатам и сумели убить одного война, но солдаты забрали девочку и ушли. Теперь в бункере есть скафандр от радиации и оружие, вскоре солдаты заварили дверь снаружи, выхода больше нет. Радиация станет проникать внутрь, их тела начнут гнить, пища и вода закончатся. Есть ли другой путь наружу, кому удастся спастись.. Концовка фильма - картина тотального уничтожения и полного опустошения, нет ничего живого, есть только радиоактивные руины и нет надежды на мир.
Изображение

Качество: BDRemux
Формат: mkv
Видео кодек: MPEG-4
Аудио кодек: AC3 (Dolby Digital)
Видео: AVC/H.264, 1920x1080 (16:9), 24fps, 24000kbps
Аудио #1: AC3, 48kHz, 384kbps, 6ch, русский закадровый [Любительский (одноголосый закадровый) den90]
Аудио #2: AC3, 48kHz, 320kbps, 2ch, русский закадровый [Любительский (двухголосый закадровый) Chip and Dale]
Аудио #3: AC3, 48kHz, 192kbps, 2ch, русский закадровый [Любительский (одноголосый закадровый)Biryukov]
Субтитры: Русские
Скриншоты
Изображение

Изображение

Изображение

Изображение
Свернуть
Mi
Format : Matroska
Format version : Version 2
File size : 20.7 GiB
Duration : 2h 2mn
Overall bit rate : 24.2 Mbps
Encoded date : UTC 2012-04-07 05:42:13
Writing application : mkvmerge v5.4.0 ('Piper') built on Mar 10 2012 13:34:39
Writing library : libebml v1.2.3 + libmatroska v1.3.0

Video
ID : 1
Format : AVC
Format/Info : Advanced Video Codec
Format profile : Main@L4.1
Format settings, CABAC : Yes
Format settings, ReFrames : 2 frames
Codec ID : V_MPEG4/ISO/AVC
Duration : 2h 2mn
Bit rate : 22.8 Mbps
Width : 1 920 pixels
Height : 1 080 pixels
Display aspect ratio : 16:9
Frame rate : 24.000 fps
Color space : YUV
Chroma subsampling : 4:2:0
Bit depth : 8 bits
Scan type : Progressive
Bits/(Pixel*Frame) : 0.459
Stream size : 19.5 GiB (94%)
Title : The Divide 2011 (1080p) HQ
Default : Yes
Forced : No

Audio #1
ID : 2
Format : AC-3
Format/Info : Audio Coding 3
Mode extension : CM (complete main)
Codec ID : A_AC3
Duration : 2h 2mn
Bit rate mode : Constant
Bit rate : 384 Kbps
Channel(s) : 6 channels
Channel positions : Front: L C R, Side: L R, LFE
Sampling rate : 48.0 KHz
Bit depth : 16 bits
Compression mode : Lossy
Stream size : 336 MiB (2%)
Title : Rus AC3 5.1 - 384 kb/s (den904)
Language : Russian
Default : Yes
Forced : No

Audio #2
ID : 3
Format : AC-3
Format/Info : Audio Coding 3
Mode extension : CM (complete main)
Codec ID : A_AC3
Duration : 2h 2mn
Bit rate mode : Constant
Bit rate : 320 Kbps
Channel(s) : 2 channels
Channel positions : Front: L R
Sampling rate : 48.0 KHz
Bit depth : 16 bits
Compression mode : Lossy
Stream size : 280 MiB (1%)
Title : Rus AC3 2.0 - 320 kb/s (Chip and Dale)
Language : Russian
Default : No
Forced : No

Audio #3
ID : 4
Format : AC-3
Format/Info : Audio Coding 3
Mode extension : CM (complete main)
Codec ID : A_AC3
Duration : 2h 2mn
Bit rate mode : Constant
Bit rate : 192 Kbps
Channel(s) : 2 channels
Channel positions : Front: L R
Sampling rate : 48.0 KHz
Bit depth : 16 bits
Compression mode : Lossy
Stream size : 168 MiB (1%)
Title : Rus AC3 2.0 - 192 kb/s (Biryukov)
Language : Russian
Default : No
Forced : No

Text
ID : 5
Format : UTF-8
Codec ID : S_TEXT/UTF8
Codec ID/Info : UTF-8 Plain Text
Title : Rus Text - UTF8
Language : Russian
Default : No
Forced : No

Свернуть
Не в сети
Профиль  
 Добавлено: 2012-04-07 11:02 (спустя 1 час 55 минут)
Аватара пользователя
Стаж: 5 лет 1 месяц
Сообщений: 101
спасибо
Не в сети
Профиль  
 Добавлено: 2012-04-07 13:21 (спустя 2 часа 18 минут)
Стаж: 6 лет 7 месяцев
Сообщений: 43
Лайков: 6
Шикарный фильм. Фильм не для всех. Жестокий, жёсткий, помесь "Бойцовского клуба", "Пилы", "Слепоты".
После просмотра он надолго останется в голове. Хорошая актерская игра и операторская работа.
Очень рекомендую любителям жанра.
Супер!!!!!!!!!!!!!!!!!!!!
Не в сети
Профиль  
 Добавлено: 2012-05-19 11:25 (спустя 1 месяц 11 дней)
Аватара пользователя
Стаж: 7 лет 6 месяцев
Возраст: 51
Сообщений: 1782
Лайков: 1396
Фильм - типичная канадская троечка. Сюжет - был уже сто раз. Бюджет - пять копеек. Метраж - безбожно растянут, смело можно убрать оттуда минуток 30, а то и 45, и тогда потянуло бы на четверку. Я вот ни хрена не понимаю режиссеров, которые держатся за каждую соплю в своем безобразно длинном фильме. Кино может быть и три часа длиной, но тогда (как и в любом фильме) он должен быть как выстрел в сердце. Сразу и наповал. Тогда, убойный, хоть и трехчасовой фильм смотрится на одном дыхании; а какую-нибудь 25-минутную короткометражку, не содержащую ничего, кроме самовыражения автора, не знающего, что ему сказать, и не умеющего этого, смотришь, как подвешенный на дыбе, и самый счастливый миг - когда эта херня кончается и можно бегом вынестись из кинозала и с облегчением покурить. Говно, как говорится, всплыло.

Но вот про этот самый фильм, конкретно "Разделитель", несмотря на его очевидные недостатки, хочу я замолвить несколько хороших слов. Там есть немало отличных и колоритных актеров, удивительно интересно отыгрывающих свои роли. Там есть явная диалектика развития персонажей (к сожалению, наступающая так нескоро, что постоянно приходится жать кнопку перемотки). Есть вполне грамотная операторская работа. И сюжет-то написан неплохо, только снят коряво. В общем, фильм для просмотра вполне пригоден! И даже запомнится. Смотрите, камрады.

Только даю один совет: если вам кажется, что затянуто, и в ближайшие минуты ничего не произойдет, смело жмите кнопку перемотки. Фильм затянут безбожно.
Не в сети
Профиль  
 Добавлено: 2012-05-22 10:36 (спустя 2 дня 23 часа)
Аватара пользователя
Стаж: 8 лет 7 месяцев
Сообщений: 340
Спасибок: 22
Лайков: 3
Смысл фильма в чем, в том, в кого человек может "превратиться" в экстренной ситуации?
Если только в этом, смысла смотреть нету, на картинку и игру актеров посмотреть можно.
Не в сети
Профиль  
 Добавлено: 2012-12-01 19:31 (спустя 6 месяцев)
Стаж: 4 года 2 месяца
Сообщений: 8
если много выпить , то да - фильм охренеть . а вообще - редкостная параша - лучше и не начинать смотреть ......................
Не в сети
Профиль  
Начать новую темуОтветить на тему  [ Сообщений: 6 ] 
Вы не можете начинать темы
Вы не можете отвечать на сообщения
Вы не можете редактировать свои сообщения
Вы не можете удалять свои сообщения