Правила форума

  • В этом разделе создание новых тем Запрещено.
  • Для создания новых тем пользуйтесь Корневым разделом DVD и HD фильмы.
Начать новую темуОтветить на тему  [ 1 сообщение ] 
Торрент файл
Размер: 4.6 GB • Зарегистрирован: 3 года 4 месяца • Статус: Проверено
Скачан: 24 раза • Желающих скачать: 0 • Поблагодарили: 7 раз
 Раздают: 0  |  0 KB/s  ]   Качают: 0  |  0 KB/s  ] 
 Полного источника не было 2 года 8 месяцев 
Сообщения
 Добавлено: 2013-07-20 08:57
Аватара пользователя
Стаж: 7 лет 2 месяца
Сообщений: 7167
Спасибок: 82016
Лайков: 2438
Развлечение / Amusement

«It's Funny... Right?»

Изображение


Год выпуска: 2008
Страна: США
Жанр: ужасы, триллер
Продолжительность: 01:24:42
Перевод: Профессиональный (двухголосый закадровый) + Оригинальная звуковая дорожка

Режиссёр: Джон Симпсон
В ролях: Кэтрин Уинник, Джессика Лукас, Лаура Брекенридж, Престон Бэйли, Бреннан Мандт, Эшли Арнольд, Дэвид Арнольд, Алиша Боэ, Карли Скотт Коллинз, Фернанда Дороги
Описание: Табита. Шелби. Лайза… Они — давние друзья, на разных жизненных дорогах. Их объединило ужасающее место, в которое они попали из-за невинного на первый взгляд инцидента, произошедшего еще в школе. Что-то или кто-то хочет кровавой мести… Внутри палаты, похожей на тюремную ячейку, сплетаются механизмы несчастной судьбы, и три женщины с другими жертвами сталкиваются с безумной борьбой за выживание. Кто выживет? Кто умрет? А для кого это просто развлечение? Выключите свет… Включите страх… Разгадка сотрясет вас…


Качество: BDRip 720p
Формат: MKV
Видео кодек: H264 (AVC)
Аудио кодек: AC3 (Dolby Digital)
Видео: 1 280x536, 23.976 fps, 6 748 Kbps
Аудио #1: 48.0 KHz, 6 ch, 384 Kbps [Профессиональный (двухголосый закадровый)]
Аудио #2: 48.0 KHz, 6 ch, 640 Kbps [Оригинальная звуковая дорожка]
Изображение
Скриншоты
Изображение

Изображение

Изображение

Изображение

Изображение

Изображение
Свернуть
MI
General
Unique ID : 208984831735593660076610753423053717376 (0x9D3903B8A57BC8109F046C9E09A87F80)
Complete name : Развлечение.2008.mkv
Format : Matroska
Format version : Version 1
File size : 4.60 GiB
Duration : 1h 24mn
Overall bit rate : 7 775 Kbps
Movie name : Развлечение (Amusement) [2009]
Encoded date : UTC 2009-01-27 20:01:24
Writing application : mkvmerge v2.4.2 ('Oh My God') built on Jan 18 2009 17:30:28
Writing library : libebml v0.7.7 + libmatroska v0.8.1

Video
ID : 1
Format : AVC
Format/Info : Advanced Video Codec
Format profile : High@L3.1
Format settings, CABAC : Yes
Format settings, ReFrames : 5 frames
Codec ID : V_MPEG4/ISO/AVC
Duration : 1h 24mn
Bit rate : 6 748 Kbps
Width : 1 280 pixels
Height : 536 pixels
Display aspect ratio : 2.40:1
Frame rate : 23.976 fps
Color space : YUV
Chroma subsampling : 4:2:0
Bit depth : 8 bits
Scan type : Progressive
Bits/(Pixel*Frame) : 0.410
Stream size : 3.90 GiB (85%)
Writing library : x264 core 65 r1074M b6bb3d4
Encoding settings : cabac=1 / ref=5 / deblock=1:-1:-1 / analyse=0x3:0x113 / me=umh / subme=7 / psy_rd=1.0:0.0 / mixed_ref=1 / me_range=16 / chroma_me=1 / trellis=1 / 8x8dct=1 / cqm=1 / deadzone=21,11 / chroma_qp_offset=-2 / threads=8 / nr=0 / decimate=1 / mbaff=0 / bframes=3 / b_pyramid=1 / b_adapt=1 / b_bias=0 / direct=3 / wpredb=1 / keyint=240 / keyint_min=24 / scenecut=40(pre) / rc=2pass / bitrate=6748 / ratetol=1.0 / qcomp=0.60 / qpmin=10 / qpmax=31 / qpstep=4 / cplxblur=20.0 / qblur=0.5 / ip_ratio=1.40 / pb_ratio=1.30 / aq=1:1.00
Language : English
Default : Yes
Forced : No

Audio #1
ID : 2
Format : AC-3
Format/Info : Audio Coding 3
Mode extension : CM (complete main)
Format settings, Endianness : Big
Codec ID : A_AC3
Duration : 1h 24mn
Bit rate mode : Constant
Bit rate : 640 Kbps
Channel(s) : 6 channels
Channel positions : Front: L C R, Side: L R, LFE
Sampling rate : 48.0 KHz
Bit depth : 16 bits
Compression mode : Lossy
Stream size : 388 MiB (8%)
Language : English
Default : No
Forced : No

Audio #2
ID : 3
Format : AC-3
Format/Info : Audio Coding 3
Mode extension : CM (complete main)
Format settings, Endianness : Big
Codec ID : A_AC3
Duration : 1h 24mn
Bit rate mode : Constant
Bit rate : 384 Kbps
Channel(s) : 6 channels
Channel positions : Front: L C R, Side: L R, LFE
Sampling rate : 48.0 KHz
Bit depth : 16 bits
Compression mode : Lossy
Delay relative to video : 850ms
Stream size : 233 MiB (5%)
Language : Russian
Default : Yes
Forced : No
Свернуть
 MiSkam и rotametr нравится это.
Не в сети
Профиль  
Начать новую темуОтветить на тему  [ 1 сообщение ] 
Вы не можете начинать темы
Вы не можете отвечать на сообщения
Вы не можете редактировать свои сообщения
Вы не можете удалять свои сообщения