Правила форума

  • В этом разделе создание новых тем Запрещено.
  • Для создания новых тем пользуйтесь Корневым разделом DVD и HD фильмы.
Начать новую темуОтветить на тему  [ 1 сообщение ] 
Торрент файл
Размер: 18.77 GB • Зарегистрирован: 3 года 8 месяцев • Статус: Проверено
Скачан: 51 раз • Желающих скачать: 0 • Поблагодарили: 13 раз
 Раздают: 0  |  0 KB/s  ]   Качают: 0  |  0 KB/s  ] 
 Полного источника не было 2 года 11 месяцев 
Сообщения
 Добавлено: 2013-04-07 05:06
Руководитель релиз-группы
Аватара пользователя
Стаж: 7 лет 5 месяцев
Возраст: 31
Сообщений: 3406
Спасибок: 46729
Лайков: 5
Изображение

Реальные парни
Stand Up Guys


Год выпуска: 2012
Страна: США
Слоган: «Жгут как в последний раз! Таких уже не делают»
Жанр: драма, комедия, криминал
Продолжительность: 01:34:58
Перевод: Профессиональный (полное дублирование)
Режиссер: Фишер Стивенс
Сценарий: Ноа Хэйдл
Продюсер: Сидни Киммел, Гари Лучези, Том Розенберг, Джим Таубер, Мэтт Беренсон
Оператор: Майкл Грэйди
Композитор: Лайл Уоркмэн
В ролях: Аль Пачино, Кристофер Уокен, Алан Аркин, Джулианна Маргулис, Марк Марголис, Люси Панч, Эддисон Тимлин, Ванесса Ферлито, Кэтрин Уинник, Билли Барр, Крэйг Шеффер, Йорго Константин
Сборы в США: $3 310 031
Описание: История строится вокруг двух уже немолодых преступников, один из которых получил задание убить близкого друга. Столь непростая ситуация требует времени на обдумывание, и киллеры решают вместе с приятелем изрядно побуянить (включая посещение борделя, угон машин и бегство от полиции), прежде чем будет принято окончательное решение.
Изображение
MPAA: Изображение
Мировая премьера: 11 октября 2012
Релиз на DVD: 5 марта 2013, «Lizard Cinema Trade»
Релиз на Blu-ray: 5 марта 2013, «Lizard Cinema Trade»
Раздача группы: Изображение
Качество: BD-Remux, 1080p
Формат: MKV
Видео: MPEG-4 AVC, 24755 Кбит/с, 1920x1080
Аудио #1: DTS-HD MA, 6 ch, 2245 Кбит/с Russian
Аудио #2: AC3, 6 ch, 640 Кбит/с Russian
Аудио #3: AC3, 6 ch, 640 Кбит/с English
Субтитры: украинские
mediainfo
Формат : Matroska

Версия формата : Version 2

Размер файла : 18,8 Гбайт

Продолжительность : 1 ч. 34 м.

Режим общего битрейта : Переменный

Общий поток : 28,3 Мбит/сек

Дата кодирования : UTC 2013-04-06 06:02:46

Программа кодирования : mkvmerge v5.7.0 ('The Whirlwind') built on Aug 7 2012 14:11:40

Библиотека кодирования : libebml v1.2.3 + libmatroska v1.3.0



Видео

Идентификатор : 1

Формат : AVC

Формат/Информация : Advanced Video Codec

Профиль формата : High@L4.1

Параметр CABAC формата : Да

Параметр ReFrames формата : 4 кадра

Идентификатор кодека : V_MPEG4/ISO/AVC

Продолжительность : 1 ч. 34 м.

Вид битрейта : Переменный

Битрейт : 24,8 Мбит/сек

Максимальный битрейт : 38,0 Мбит/сек

Ширина : 1920 пикселей

Высота : 1080 пикселей

Соотношение сторон : 16:9

Режим частоты кадров : Постоянный

Частота кадров : 23,976 кадра/сек

Стандарт вещания : NTSC

Цветовое пространство : YUV

Субдискретизация насыщенности : 4:2:0

Битовая глубина : 8 бит

Тип развёртки : Прогрессивная

Бит/(Пиксели*Кадры) : 0.499

Размер потока : 16,5 Гбайт (88%)

Заголовок : Реальные.парни-Stand.Up.Guys.(2012).[1080p].BDRemux

Язык : English

Default : Да

Forced : Нет

Основные цвета : BT.709

Характеристики трансфера : BT.709

Коэффициенты матрицы : BT.709



Аудио #1

Идентификатор : 2

Формат : DTS

Формат/Информация : Digital Theater Systems

Профиль формата : MA / Core

Идентификатор кодека : A_DTS

Продолжительность : 1 ч. 34 м.

Вид битрейта : Переменный

Битрейт : 1642 Кбит/сек / 1510 Кбит/сек

Каналы : 6 каналов

Расположение каналов : Front: L C R, Side: L R, LFE

Частота : 48,0 КГц

Битовая глубина : 16 бит

Метод сжатия : Без потерь / Lossy

Заголовок : DTS-HD MА 5.1 / 2245 kbps

Язык : Russian

Default : Да

Forced : Нет



Аудио #2

Идентификатор : 3

Формат : AC-3

Формат/Информация : Audio Coding 3

Расширение режима : CM (complete main)

Параметр Endianness формата : Big

Идентификатор кодека : A_AC3

Продолжительность : 1 ч. 34 м.

Вид битрейта : Постоянный

Битрейт : 640 Кбит/сек

Каналы : 6 каналов

Расположение каналов : Front: L C R, Side: L R, LFE

Частота : 48,0 КГц

Битовая глубина : 16 бит

Метод сжатия : С потерями

Размер потока : 435 Мбайт (2%)

Заголовок : AC3 5.1 / 640 kbps

Язык : Russian

Default : Нет

Forced : Нет



Аудио #3

Идентификатор : 4

Формат : AC-3

Формат/Информация : Audio Coding 3

Расширение режима : CM (complete main)

Параметр Endianness формата : Big

Идентификатор кодека : A_AC3

Продолжительность : 1 ч. 34 м.

Вид битрейта : Постоянный

Битрейт : 640 Кбит/сек

Каналы : 6 каналов

Расположение каналов : Front: L C R, Side: L R, LFE

Частота : 48,0 КГц

Битовая глубина : 16 бит

Метод сжатия : С потерями

Размер потока : 435 Мбайт (2%)

Заголовок : AC3 5.1 / 640 kbps

Язык : English

Default : Нет

Forced : Нет



Текст

Идентификатор : 5

Формат : PGS

Режим смешивания : zlib

Идентификатор кодека : S_HDMV/PGS

Идентификатор кодека/Информация : The same subtitle format used on BDs/HD-DVDs

Язык : Ukrainian

Default : Нет

Forced : Нет



Меню

00:00:00.000 : en:Chapter 00

00:04:51.332 : en:Chapter 01

00:08:54.283 : en:Chapter 02

00:15:26.926 : en:Chapter 03

00:23:22.651 : en:Chapter 04

00:28:52.856 : en:Chapter 05

00:32:13.056 : en:Chapter 06

00:40:56.745 : en:Chapter 07

00:47:59.042 : en:Chapter 08

00:52:39.906 : en:Chapter 09

00:59:48.668 : en:Chapter 10

01:04:36.289 : en:Chapter 11

01:11:03.717 : en:Chapter 12

01:19:53.163 : en:Chapter 13

01:24:09.461 : en:Chapter 14

01:29:34.369 : en:Chapter 15
Свернуть
"Знаете ли Вы, что..."
  • В саундтрек фильма входит две песни Bon Jovi.
Свернуть
Скриншоты

Изображение

Изображение

Изображение
Свернуть
Не в сети
Профиль  
Начать новую темуОтветить на тему  [ 1 сообщение ] 
Вы не можете начинать темы
Вы не можете отвечать на сообщения
Вы не можете редактировать свои сообщения
Вы не можете удалять свои сообщения