Правила форума

  • В этом разделе создание новых тем Запрещено.
  • Для создания новых тем пользуйтесь Корневым разделом DVD и HD фильмы.
Начать новую темуОтветить на тему  [ Сообщений: 3 ] 
Торрент файл
Размер: 5.77 GB • Зарегистрирован: 3 года • Статус: Проверено
Скачан: 67 раз • Желающих скачать: 0 • Поблагодарили: 41 раз
 Раздают: 0  |  0 KB/s  ]   Качают: 0  |  0 KB/s  ] 
 Полного источника не было 1 год 
Сообщения
 Добавлено: 2013-11-13 20:40
Аватара пользователя
Стаж: 3 года 6 месяцев
Сообщений: 175
Спасибок: 4258
Лайков: 29
РЭД 2 / Red 2

Изображение


Год выпуска: 2013
Страна: США, Франция, Канада (Summit Entertainment, Di Bonaventura Pictures, DC Entertainment)
Слоган: «Отдохнём на том свете»
Жанр: Боевик, Комедия
Продолжительность: 01:55:48
Перевод: Профессиональный (дубляж)[Лицензия]

Режиссёр: Дин Паризо
Продюсер: Лоренцо Ди Бонавентура, Марк Вахрадян, Рафаэль Бенолье
Композитор: Алан Сильвестри
В ролях: Брюс Уиллис, Джон Малкович, Мэри-Луиз Паркер, Кэтрин Зета-Джонс, Ли Бён Хон, Энтони Хопкинс, Хелен Миррен, Йонг Кун Ли, Нил МакДонаф, Дэвид Тьюлис
Описание: Вышедший на пенсию тайный агент ЦРУ Фрэнк Мозес объединяется с командой старых друзей, элитных оперативников, с целью найти пропавшее оружие массового уничтожения. Чтобы его заполучить, прийдется прорываться сквозь армии безжалостных наемников, террористов и всегда жаждущих власти политиков.
Мировая премьера: 18 июля 2013
Премьера в России: 1 августа 2013, «Централ Партнершип»
Бюджет: $84 000 000

Качество: BDRip 720p
Формат: MKV
Видео кодек: MPEG-4 AVC/H.264
Аудио кодек: AC3, DTS
Видео: 1280x536, MPEG-4 AVC/H.264, 5241 kb/s
Аудио #1: Русский: AC-3, 48.0 KHz, 6 ch, 384 Kbps, CBR
Аудио #2: Английский: DTS, 48.0 KHz, 6 ch, 1510 Kbps, CBR [Оригинальная звуковая дорожка]
Субтитры: Английские

Изображение
MediaInfo
Общее
Уникальный идентификатор : 240726475073453976757177808712640254271 (0xB51A3B9097FECEE8AA7268908C98513F)
Полное имя : D:\Фильмы\Red.2.2013.D.BDRip.720p.mkv
Формат : Matroska
Версия формата : Version 4 / Version 2
Размер файла : 5,77 Гбайт
Продолжительность : 1 ч. 55 м.
Общий поток : 7132 Кбит/сек
Дата кодирования : UTC 2013-11-13 04:14:13
Программа кодирования : mkvmerge v6.2.0 ('Promised Land') built on Apr 28 2013 12:22:01
Библиотека кодирования : libebml v1.3.0 + libmatroska v1.4.0

Видео
Идентификатор : 1
Формат : AVC
Формат/Информация : Advanced Video Codec
Профиль формата : High@L4.1
Параметр CABAC формата : Да
Параметр ReFrames формата : 5 кадров
Идентификатор кодека : V_MPEG4/ISO/AVC
Продолжительность : 1 ч. 55 м.
Битрейт : 5241 Кбит/сек
Ширина : 1280 пикселей
Высота : 536 пикселей
Соотношение сторон : 2,40:1
Режим частоты кадров : Постоянный
Частота кадров : 23,976 кадра/сек
Цветовое пространство : YUV
Субдискретизация насыщенности : 4:2:0
Битовая глубина : 8 бит
Тип развёртки : Прогрессивная
Бит/(Пиксели*Кадры) : 0.319
Размер потока : 4,12 Гбайт (71%)
Библиотека кодирования : x264 core 140 r2377 1ca7bb9
Настройки программы : cabac=1 / ref=5 / deblock=1:0:0 / analyse=0x3:0x133 / me=umh / subme=7 / psy=1 / psy_rd=1.00:0.00 / mixed_ref=1 / me_range=16 / chroma_me=1 / trellis=1 / 8x8dct=1 / cqm=0 / deadzone=21,11 / fast_pskip=0 / chroma_qp_offset=-2 / threads=36 / lookahead_threads=4 / sliced_threads=0 / nr=0 / decimate=1 / interlaced=0 / bluray_compat=0 / constrained_intra=0 / bframes=3 / b_pyramid=2 / b_adapt=1 / b_bias=0 / direct=1 / weightb=1 / open_gop=0 / weightp=2 / keyint=250 / keyint_min=23 / scenecut=40 / intra_refresh=0 / rc_lookahead=40 / rc=2pass / mbtree=1 / bitrate=5241 / ratetol=1.0 / qcomp=0.60 / qpmin=0 / qpmax=69 / qpstep=4 / cplxblur=20.0 / qblur=0.5 / ip_ratio=1.40 / aq=1:1.00
Язык : English
Default : Да
Forced : Нет

Аудио #1
Идентификатор : 2
Формат : AC-3
Формат/Информация : Audio Coding 3
Расширение режима : CM (complete main)
Параметр Endianness формата : Big
Идентификатор кодека : A_AC3
Продолжительность : 1 ч. 55 м.
Вид битрейта : Постоянный
Битрейт : 384 Кбит/сек
Каналы : 6 каналов
Расположение каналов : Front: L C R, Side: L R, LFE
Частота : 48,0 КГц
Битовая глубина : 16 бит
Метод сжатия : С потерями
Размер потока : 318 Мбайт (5%)
Язык : Russian
Default : Да
Forced : Нет

Аудио #2
Идентификатор : 3
Формат : DTS
Формат/Информация : Digital Theater Systems
Режим : 16
Параметр Endianness формата : Big
Идентификатор кодека : A_DTS
Продолжительность : 1 ч. 55 м.
Вид битрейта : Постоянный
Битрейт : 1509 Кбит/сек
Каналы : 6 каналов
Расположение каналов : Front: L C R, Side: L R, LFE
Частота : 48,0 КГц
Битовая глубина : 24 бит
Метод сжатия : С потерями
Размер потока : 1,22 Гбайт (21%)
Язык : English
Default : Нет
Forced : Нет

Текст
Идентификатор : 4
Формат : UTF-8
Идентификатор кодека : S_TEXT/UTF8
Идентификатор кодека/Информация : UTF-8 Plain Text
Язык : English
Default : Нет
Forced : Нет

Меню
00:00:00.000 : en:00:00:00.000
00:08:31.094 : en:00:08:31.094
00:15:02.193 : en:00:15:02.193
00:21:30.497 : en:00:21:30.497
00:28:33.337 : en:00:28:33.337
00:39:50.888 : en:00:39:50.888
00:47:24.425 : en:00:47:24.425
00:54:32.561 : en:00:54:32.561
01:00:21.326 : en:01:00:21.326
01:07:47.021 : en:01:07:47.021
01:11:48.804 : en:01:11:48.804
01:18:52.770 : en:01:18:52.770
01:23:16.283 : en:01:23:16.283
01:28:01.067 : en:01:28:01.067
01:35:52.455 : en:01:35:52.455
01:41:44.306 : en:01:41:44.306
01:45:24.026 : en:01:45:24.026
01:46:59.913 : en:01:46:59.913
Свернуть

Скриншоты
Изображение
Изображение
Изображение
Изображение
Свернуть
Не в сети
Профиль  
 Добавлено: 2013-11-13 23:41 (спустя 3 часа)
Top-releaser
Аватара пользователя
Стаж: 7 лет 4 месяца
Возраст: 38
Сообщений: 5347
Спасибок: 10068
Лайков: 2936
Угарный фильм, хохотал весь фильм, класс! :bra_vo: ;;-))) :ya_hoo_oo: :co_ol:
Не в сети
Профиль  
 Добавлено: 2013-11-26 20:09 (спустя 12 дней)
Аватара пользователя
Стаж: 8 лет 5 месяцев
Сообщений: 67
На один раз не более, первый на много лучше.
Не в сети
Профиль  
Начать новую темуОтветить на тему  [ Сообщений: 3 ] 
Вы не можете начинать темы
Вы не можете отвечать на сообщения
Вы не можете редактировать свои сообщения
Вы не можете удалять свои сообщения