Правила форума

  • В этом разделе создание новых тем Запрещено.
  • Для создания новых тем пользуйтесь Корневым разделом DVD и HD фильмы.
Начать новую темуОтветить на тему  [ Сообщений: 2 ] 
Торрент файл
Размер: 11.39 GB • Зарегистрирован: 3 года • Статус: Проверено
Скачан: 221 раз • Желающих скачать: 0 • Поблагодарили: 99 раз
 Раздают: 0  |  0 KB/s  ]   Качают: 0  |  0 KB/s  ] 
 Полного источника не было 4 часа 
Сообщения
 Добавлено: 2013-11-14 12:19
Аватара пользователя
Стаж: 9 лет 1 месяц
Сообщений: 7940
Спасибок: 122160
Лайков: 1191
РЭД 2 / Red 2

«Отдохнём на том свете»

Изображение


Год выпуска: 2013
Страна: Изображение США Изображение Франция Изображение Канада
Жанр: боевик, комедия
Продолжительность: 01:55:49
Субтитры: Русские, английские
Перевод: Профессиональный (полное дублирование) [Лицензия]


Режиссер: Дин Паризо
Сценарий: Джон Хобер, Эрих Хобер, Уоррен Эллис
Продюсер: Лоренцо Ди Бонавентура, Марк Вахрадян, Рафаэль Бенолье
Оператор: Энрике Чедьяк
Композитор: Алан Сильвестри

В ролях: Брюс Уиллис, Джон Малкович, Мэри-Луиз Паркер, Бён Хон Ли, Хелен Миррен, Энтони Хопкинс, Кэтрин Зета-Джонс, Дэвид Тьюлис, Нил МакДонаф, Ли Асквит-Коу

Описание: Вышедший на пенсию тайный агент ЦРУ Фрэнк Мозес объединяется с командой старых друзей, элитных оперативников, с целью найти пропавшее оружие массового уничтожения. Чтобы его заполучить, придётся прорываться сквозь армии безжалостных наёмников, террористов и всегда жаждущих власти политиков.

Миссия приводит Фрэнка и его разношёрстную команду вышедших на пенсию убийц в Париж, Лондон и Москву. В их арсенале есть только хитрость, старая сноровка и помощь друг друга, чтобы спасти мир и при этом самим остаться в живых.


Изображение Изображение

Раздача группы: Изображение

Качество: BDRip (1080p)
Формат: Matroska
Видео: MPEG-4 AVC, 12.2 Мбит/с, 1920x800
Аудио №1: Русский (AC3, 48,0 КГц, 6 ch, 384 Кбит/c)
Аудио №2: Английский (DTS, 48,0 КГц, 6 ch, 1510 Кбит/c)

MediaInfo
Общее
Уникальный идентификатор : 174770718764955974114418660217046766902 (0x837B9DB693A93607B6D64C44D8F11536)
Полное имя : C:\Фильмы\Red.2.2013.1080p.BluRay.[R.G.Daredevil].mkv
Формат : Matroska
Версия формата : Version 2
Размер файла : 11,4 Гбайт
Продолжительность : 1 ч. 55 м.
Общий поток : 14,1 Мбит/сек
Дата кодирования : UTC 2013-11-13 22:39:58
Программа кодирования : mkvmerge v6.3.0 ('You can't stop me!') built on Jun 28 2013 20:09:41
Библиотека кодирования : libebml v1.3.0 + libmatroska v1.4.0

Видео
Идентификатор : 1
Формат : AVC
Формат/Информация : Advanced Video Codec
Профиль формата : High@L4.1
Параметр CABAC формата : Да
Параметр ReFrames формата : 5 кадров
Идентификатор кодека : V_MPEG4/ISO/AVC
Продолжительность : 1 ч. 55 м.
Битрейт : 12,2 Мбит/сек
Ширина : 1920 пикселей
Высота : 800 пикселей
Соотношение сторон : 2,40:1
Режим частоты кадров : Постоянный
Частота кадров : 23,976 кадра/сек
Цветовое пространство : YUV
Субдискретизация насыщенности : 4:2:0
Битовая глубина : 8 бит
Тип развёртки : Прогрессивная
Бит/(Пиксели*Кадры) : 0.331
Размер потока : 9,64 Гбайт (85%)
Библиотека кодирования : x264 core 133 r2334+704+50 a7549b7 tMod [8-bit@4:2:0 X86_64]
Настройки программы : cabac=1 / ref=5 / deblock=1:-3:-3 / analyse=0x3:0x113 / me=umh / subme=10 / psy=1 / fade_compensate=0.00 / psy_rd=1.05:0.01 / mixed_ref=1 / me_range=32 / chroma_me=1 / trellis=2 / 8x8dct=1 / cqm=0 / deadzone=21,11 / fast_pskip=1 / chroma_qp_offset=-3 / threads=16 / lookahead_threads=1 / sliced_threads=0 / nr=0 / decimate=1 / interlaced=0 / bluray_compat=0 / constrained_intra=0 / fgo=0 / bframes=6 / b_pyramid=2 / b_adapt=1 / b_bias=0 / direct=3 / weightb=1 / open_gop=0 / weightp=2 / keyint=240 / keyint_min=23 / scenecut=40 / intra_refresh=0 / rc_lookahead=50 / rc=2pass / mbtree=1 / bitrate=12200 / ratetol=1.0 / qcomp=0.60 / qpmin=0 / qpmax=69 / qpstep=4 / cplxblur=20.0 / qblur=0.5 / vbv_maxrate=50000 / vbv_bufsize=50000 / nal_hrd=none / ip_ratio=1.40 / aq=4:0.90 / aq-sensitivity=10.00 / aq-factor=1.00:1.00:1.00 / aq2=0 / aq3=0
Язык : English
Default : Да
Forced : Нет

Аудио #1
Идентификатор : 2
Формат : AC-3
Формат/Информация : Audio Coding 3
Расширение режима : CM (complete main)
Параметр Endianness формата : Big
Идентификатор кодека : A_AC3
Продолжительность : 1 ч. 55 м.
Вид битрейта : Постоянный
Битрейт : 384 Кбит/сек
Каналы : 6 каналов
Расположение каналов : Front: L C R, Side: L R, LFE
Частота : 48,0 КГц
Битовая глубина : 16 бит
Метод сжатия : С потерями
Размер потока : 318 Мбайт (3%)
Язык : Russian
Default : Да
Forced : Нет

Аудио #2
Идентификатор : 3
Формат : DTS
Формат/Информация : Digital Theater Systems
Режим : 16
Параметр Endianness формата : Big
Идентификатор кодека : A_DTS
Продолжительность : 1 ч. 55 м.
Вид битрейта : Постоянный
Битрейт : 1509 Кбит/сек
Каналы : 6 каналов
Расположение каналов : Front: L C R, Side: L R, LFE
Частота : 48,0 КГц
Битовая глубина : 24 бит
Метод сжатия : С потерями
Размер потока : 1,22 Гбайт (11%)
Заголовок : DTS
Язык : English
Default : Нет
Forced : Нет

Текст #1
Идентификатор : 4
Формат : UTF-8
Идентификатор кодека : S_TEXT/UTF8
Идентификатор кодека/Информация : UTF-8 Plain Text
Язык : Russian
Default : Нет
Forced : Нет

Текст #2
Идентификатор : 5
Формат : UTF-8
Идентификатор кодека : S_TEXT/UTF8
Идентификатор кодека/Информация : UTF-8 Plain Text
Заголовок : English
Язык : English
Default : Нет
Forced : Нет

Меню
00:00:00.000 : en:00:00:00.000
00:08:31.094 : en:00:08:31.094
00:15:02.193 : en:00:15:02.193
00:21:30.497 : en:00:21:30.497
00:28:33.337 : en:00:28:33.337
00:39:50.888 : en:00:39:50.888
00:47:24.425 : en:00:47:24.425
00:54:32.561 : en:00:54:32.561
01:00:21.326 : en:01:00:21.326
01:07:47.021 : en:01:07:47.021
01:11:48.804 : en:01:11:48.804
01:18:52.770 : en:01:18:52.770
01:23:16.283 : en:01:23:16.283
01:28:01.067 : en:01:28:01.067
01:35:52.455 : en:01:35:52.455
01:41:44.306 : en:01:41:44.306
01:45:24.026 : en:01:45:24.026
01:46:59.913 : en:01:46:59.913
Свернуть
Знаете ли вы, что...
Большая часть парижских съемок пришлась на автомобильную погоню. Действие разворачивается на мосту, к востоку от Собора Парижской Богоматери. Старый «Ситроен» специально приспособили для того, чтобы он смог съехать по ступенькам прямо к Сене.

Съемки в Монреале продолжались 14 дней, а среди натуры был особняк, изобразивший парижское обиталище Фрога. Он был построен в 1914 году архитектором Жаном-Омером Маршаном на Вуд-стрит, в модном районе Вестмаунт.

Съемки продолжения начались 14 сентября 2012 года на Олимпийском стадионе Монреаля. Здание, законченное к летним Олимпийским играм 1976 года, как и многие многофункциональные стадионы, построенные в семидесятых, используется довольно редко. Его бетонные своды напоминают бункер, поэтому оно прекрасно подошло на роль секретного штаба МИ-6.

Интерьеры Кремля были созданы в одном из доков восточного Лондона. Здание, построенное в начале восемнадцатого века как хранилище табака, привезенного из Нового Света, в последние годы служило торговым центром, пока его не закрыли несколько лет назад. Подвальный этаж с кирпичными сводами идеально передал необходимую для этой сцены мрачную атмосферу.

На счету Брайана Кокса (1 фильм) и Энтони Хопкинса (3 фильма) роль Ганнибала Лектера в экранизациях романов Томаса Харриса: «Охотник на людей» (1986), «Молчание Ягнят» (1990), «Красный Дракон» (2002), «Ганнибал» (2001).

Свернуть
Скриншоты
Изображение
Изображение
Изображение
Изображение
Свернуть
Не в сети
Профиль  
 Добавлено: 2013-11-14 15:03 (спустя 2 часа 43 минуты)
Аватара пользователя
Стаж: 8 лет
Сообщений: 77
Лайков: 1
Что-то я не вкурю ннтт заработал? На нём этот фильм уже проверен и 1000 сидов. Что происходит с этим трекером кто то может объяснить?
Не в сети
Профиль  
Начать новую темуОтветить на тему  [ Сообщений: 2 ] 
Вы не можете начинать темы
Вы не можете отвечать на сообщения
Вы не можете редактировать свои сообщения
Вы не можете удалять свои сообщения