Правила форума

  • В этом разделе создание новых тем Запрещено.
  • Для создания новых тем пользуйтесь Корневым разделом DVD и HD фильмы.
Начать новую темуОтветить на тему  [ 1 сообщение ] 
Торрент файл
Размер: 3.03 GB • Зарегистрирован: 2 года 5 месяцев • Статус: Проверено
Скачан: 14 раз • Желающих скачать: 0 • Поблагодарили: 4 раза
 Раздают: 0  |  0 KB/s  ]   Качают: 0  |  0 KB/s  ] 
 Полного источника не было 46 минут 
Сообщения
 Добавлено: 2014-06-13 20:10
Книголюб
Аватара пользователя
Стаж: 7 лет 2 месяца
Сообщений: 2823
Спасибок: 48828
Лайков: 73
Рекрут
he Recruit

«Trust. Betrayal. Deception. In the C.I.A. nothing is what it seems»

Изображение


Год выпуска: 2003
Страна: США
Слоган: «Trust. Betrayal. Deception. In the C.I.A. nothing is what it seems»
Жанр: боевик, триллер, драма, криминал
Продолжительность: 01:55
Перевод: Профессиональный (дубляж)

Режиссёр: Роджер Дональдсон
В ролях: Аль Пачино, Колин Фаррелл, Бриджет Мойнэхэн, Гэбриэл Махт, Кеннет Митчелл, Майк Рилба, Рон Лиа, Карл Прюнер, Джини Колледжа, Дженни Ливайн, Ричард Фицпатрик
Описание: Джеймс Клэйтон учится на последнем курсе Массачусетского технологического института и показывает отличные навыки в компьютерном программировании. Клэйтон является матерым хакером, что привлекает внимание спецслужб. Однажды к Джеймсу обращается человек из ЦРУ Уолтер Бёрк, который предлагает парню поступить на службу в управление, а в виде главной мотивации для вербовки он использует таинственное исчезновение отца Джеймса, которое произошло в начале 90-х годов. Заинтригованный Клэйтон соглашается, а позже проходит все необходимые проверки и попадает в тренировочный лагерь для рекрутов. Тренером ребят становится Уолтер Бёрк. Пройдя один тест за другим, Клэйтон демонстрирует прекрасные навыки шпиона, но проваливает последнюю проверку. Так он становится агентом без прикрытия, которому предстоит найти «крота», который частями похищает опасный вирус из Лэнгли.
Рейтинг MPAA: Рейтинг PG-13 (Дети до 13 лет допускаются на фильм только с родителями)
Мировая премьера: 25 января 2003
Премьера в России: 5 июня 2003, «Каскад»
Бюджет: $932 629
Изображение

Качество: BDRip 720p)
Формат: MKV
Видео кодек: AVC
Аудио кодек: AC3 (Dolby Digital)
Видео: 1280x546 (2.35:1) 23.976 fps, 3188 kbps
Аудио #1: Rus: 48000Hz stereo 192 Kbps
Аудио #2: Eng: 48000Hz 6ch 384 Kbps
MediaInfo
General
Unique ID : 60341874841936676052304267606984637212 (0x2D656C202B2F4F48B8FB4F7FF5CA3B1C)
Complete name : K:\Torrent\The Recruit.mkv
Format : Matroska
Format version : Version 2
File size : 3.03 GiB
Duration : 1h 55mn
Overall bit rate : 3 767 Kbps
Movie name : -=LEONARDO=-
Encoded date : UTC 2014-03-26 15:47:43
Writing application : mkvmerge v5.0.1 ('Es ist Sommer') built on Oct 23 2011 00:46:40
Writing library : libebml v1.2.2 + libmatroska v1.3.0

Video
ID : 1
Format : AVC
Format/Info : Advanced Video Codec
Format profile : High@L4.1
Format settings, CABAC : Yes
Format settings, ReFrames : 9 frames
Codec ID : V_MPEG4/ISO/AVC
Duration : 1h 55mn
Bit rate : 3 116 Kbps
Width : 1 280 pixels
Height : 546 pixels
Display aspect ratio : 2.35:1
Frame rate : 23.976 fps
Color space : YUV
Chroma subsampling : 4:2:0
Bit depth : 8 bits
Scan type : Progressive
Bits/(Pixel*Frame) : 0.186
Stream size : 2.50 GiB (83%)
Writing library : x264 core 125 r2208 d9d2288
Encoding settings : cabac=1 / ref=9 / deblock=1:-3:-3 / analyse=0x3:0x133 / me=umh / subme=11 / psy=1 / psy_rd=1.00:0.10 / mixed_ref=1 / me_range=32 / chroma_me=1 / trellis=2 / 8x8dct=1 / cqm=0 / deadzone=21,11 / fast_pskip=0 / chroma_qp_offset=-3 / threads=12 / lookahead_threads=2 / sliced_threads=0 / nr=0 / decimate=1 / interlaced=0 / bluray_compat=0 / constrained_intra=0 / bframes=8 / b_pyramid=2 / b_adapt=2 / b_bias=0 / direct=1 / weightb=1 / open_gop=0 / weightp=2 / keyint=250 / keyint_min=23 / scenecut=40 / intra_refresh=0 / rc=crf / mbtree=0 / crf=17.5 / qcomp=0.60 / qpmin=0 / qpmax=69 / qpstep=4 / ip_ratio=1.40 / pb_ratio=1.30 / aq=2:1.00
Language : English
Default : Yes
Forced : No

Audio #1
ID : 2
Format : AC-3
Format/Info : Audio Coding 3
Mode extension : CM (complete main)
Codec ID : A_AC3
Duration : 1h 55mn
Bit rate mode : Constant
Bit rate : 192 Kbps
Channel(s) : 2 channels
Channel positions : Front: L R
Sampling rate : 48.0 KHz
Bit depth : 16 bits
Compression mode : Lossy
Stream size : 158 MiB (5%)
Language : Russian
Default : Yes
Forced : Yes

Audio #2
ID : 3
Format : AC-3
Format/Info : Audio Coding 3
Mode extension : CM (complete main)
Codec ID : A_AC3
Duration : 1h 55mn
Bit rate mode : Constant
Bit rate : 384 Kbps
Channel(s) : 6 channels
Channel positions : Front: L C R, Side: L R, LFE
Sampling rate : 48.0 KHz
Bit depth : 16 bits
Compression mode : Lossy
Stream size : 316 MiB (10%)
Language : English
Default : No
Forced : No

Text #1
ID : 4
Format : UTF-8
Codec ID : S_TEXT/UTF8
Codec ID/Info : UTF-8 Plain Text
Language : Russian
Default : Yes
Forced : No

Text #2
ID : 5
Format : UTF-8
Codec ID : S_TEXT/UTF8
Codec ID/Info : UTF-8 Plain Text
Language : Russian
Default : No
Forced : No

Text #3
ID : 6
Format : UTF-8
Codec ID : S_TEXT/UTF8
Codec ID/Info : UTF-8 Plain Text
Language : English
Default : No
Forced : No

Menu
00:00:00.000 : en:Job Fair
00:02:41.327 : en:Cia Material
00:09:04.876 : en:The Interview
00:15:03.027 : en:The Farm
00:21:31.873 : en:Bug House
00:27:59.969 : en:Field Trip
00:36:17.507 : en:Choke Point
00:40:36.725 : en:The Noc
00:47:55.122 : en:Welcome to the Cia
00:56:18.875 : en:Contact
01:00:35.965 : en:Mail Delivery
01:09:15.401 : en:Breakfast
01:20:40.544 : en:Tracking Layla
01:27:52.517 : en:Coffee and Data
01:36:19.398 : en:Spartacus
01:45:11.388 : en:Spotlight
01:50:27.912 : en:End Credits


Свернуть

Скриншоты
Изображение
Изображение

Свернуть
⤵⤵
Не в сети
Профиль  
Начать новую темуОтветить на тему  [ 1 сообщение ] 
Вы не можете начинать темы
Вы не можете отвечать на сообщения
Вы не можете редактировать свои сообщения
Вы не можете удалять свои сообщения