Правила форума

  • В этом разделе создание новых тем Запрещено.
  • Для создания новых тем пользуйтесь Корневым разделом DVD и HD фильмы.
Начать новую темуОтветить на тему  [ Сообщений: 4 ] 
Торрент файл
Размер: 4.34 GB • Зарегистрирован: 5 лет 7 месяцев • Статус: Проверено
Скачан: 248 раз • Желающих скачать: 0 • Поблагодарили: 46 раз
 Раздают: 0  |  0 KB/s  ]   Качают: 0  |  0 KB/s  ] 
 Полного источника не было 1 месяц 17 дней 
Сообщения
 Добавлено: 2011-04-25 17:29
Аватара пользователя
Стаж: 9 лет
Возраст: 27
Сообщений: 1386
Спасибок: 16114
Лайков: 14
Изображение

Револьвер / Revolver

«The greatest trick you ever pulled was making him believe he is you.»

Год выпуска: 2005
Страна: Изображение Франция, Изображение Великобритания
Жанр: триллер, драма, криминал, детектив
Продолжительность: 01:51:21
Перевод: Профессиональный (полное дублирование)

Режиссер: Гай Ричи
Сценарий: Люк Бессон, Гай Ричи
Продюсер: Вирджиния Силла, Люк Бессон, Стив Кристиан
Оператор: Тим Морис-Джонс
Композитор: Натэниел Мекали

В ролях: Джейсон Стэтхэм, Рэй Лиотта, Винсент Пасторе, Андре Бенджамин, Теренс Мэйнард, Эндрю Ховард, Марк Стронг, Франческа Аннис, Anjela Lauren Smith, Elana Binysh, Фарук Прути, Shend, Билл Муди, Стивен Уолтерс, Винсент Риотта, Том Ву, Ian Puleston-Davies, Джимми Флинт, Brian Hibbard, Брюс Ванг, Тони Тэнг

Описание: Семь лет назад Джек влип в неприятную историю. По всему городу шли нелегальные азартные игры — игры без правил, полные опасности, но приносящие хороший доход. Организовывал и присматривал за этими играми преступный босс Мака и его люди. Накануне одной «большой игры», Мака потерял своего парня, и его люди, узнав о Джеке Грине, решили, что он сможет подойти на замену. Грин, выслушав предложение ребят Маки, отказался, но ребята не отступили и стали давить на брата Джека и на его семью. Грин был вынужден сесть за карточный стол, чтобы брата с семьёй оставили в покое. Игру он выиграл. И с этого все началось…

Релиз: Изображение

Раздача: Изображение
Изображение

Доп. информация
Сборы в мире: + $6 076 645 = $6 161 383
Сборы в США: $84 738
Сборы в России: $84 738
Премьера (мир): 11 сентября 2005
Премьера (РФ): 22 сентября 2005, «Парадиз»
Рейтинг R — Restricted. Подростки до 17 лет допускаются на фильм только в сопровождении одного из родителей
Изображение
Ограничение — до 17 лет требуется сопровождение родителя или взрослого опекуна (возраст может меняться в некоторых регионах). Данный рейтинг показывает, что оценочная комиссия заключила, что некоторый материал оценённого фильма предназначается для взрослых. Родители должны больше узнать о фильме прежде, чем взять на его просмотр детей. Рейтинг R также может быть назначен из-за используемого в фильме языка, темы, насилия, секса или изображения употребления наркотиков.
Свернуть
Свернуть
Знаете ли вы, что...
* Автомобильные номера в фильме закрывают черные таблички.
* В фильме присутствуют только 12-долларовые купюры, в реальности не существующие.
* Микки Рурк был приглашён на одну из ролей, но отказался от неё ради съёмок в «Домино».
* Все легковые автомобили в картине — марки «Кадиллак».
Свернуть

Изображение

Качество: BDRip 1080p
Формат: MKV
Видео: 1920x814, 4689 Кбит/сек, 23,976 кадр/сек, AVC, x264, 2,35:1, 0.125 Бит/(Пиксели*Кадры)
Аудио: AC-3, 384 Кбит/сек, 6 канала(ов), 48,0 КГц


Скриншоты

Изображение

Изображение

Изображение

Свернуть
MI
Формат : Matroska
Размер файла : 4,34 Гбайт
Продолжительность : 1 ч. 57 м.
Общий поток : 5291 Кбит/сек
Название фильма : Rip by Tembr
Дата кодирования : UTC 2011-03-30 19:34:34
Программа кодирования : mkvmerge v3.2.0 ('Beginnings') built on Feb 12 2010 16:46:17
Библиотека кодирования : libebml v0.7.9 + libmatroska v0.8.1

Видео
Идентификатор : 1
Формат : AVC
Формат/Информация : Advanced Video Codec
Профиль формата : High@L4.1
Параметр CABAC формата : Да
Параметр ReFrames формата : 3 кадра
Идентификатор кодека : V_MPEG4/ISO/AVC
Продолжительность : 1 ч. 57 м.
Вид битрейта : Переменный
Битрейт : 4964 Кбит/сек
Максимальный битрейт : 15,0 Мбит/сек
Ширина : 1920 пикс.
Высота : 814 пикс.
Соотношение сторон : 2,35:1
Соотношение сторон в оригинале : 2,35:1
Частота кадров : 23,976 кадр/сек
Цветовое пространство : YUV
Подвыборка цветности : 4:2:0
Битовая глубина : 8 бит
Тип развёртки : Прогрессивная
Бит/(Пиксели*Кадры) : 0.132
Размер потока : 3,94 Гбайт (91%)
Заголовок : Револьвер.[NoLimits-Team.ru]
Библиотека кодирования : x264 core 114 r1913 5fd3dce
Настройки программы : cabac=1 / ref=1 / deblock=1:0:0 / analyse=0x3:0x3 / me=dia / subme=1 / psy=1 / psy_rd=0.00:0.00 / mixed_ref=0 / me_range=16 / chroma_me=1 / trellis=0 / 8x8dct=1 / cqm=0 / deadzone=21,11 / fast_pskip=1 / chroma_qp_offset=0 / threads=3 / sliced_threads=0 / slices=4 / nr=0 / decimate=1 / interlaced=0 / constrained_intra=0 / bframes=3 / b_pyramid=1 / b_adapt=1 / b_bias=0 / direct=1 / weightb=1 / open_gop=0 / weightp=1 / keyint=24 / keyint_min=1 / scenecut=40 / intra_refresh=0 / rc_lookahead=0 / rc=abr / mbtree=0 / bitrate=4964 / ratetol=1.0 / qcomp=0.60 / qpmin=0 / qpmax=69 / qpstep=4 / vbv_maxrate=15000 / vbv_bufsize=15000 / nal_hrd=vbr / ip_ratio=1.10 / pb_ratio=1.10 / aq=1:1.00
Язык : English

Аудио
Идентификатор : 2
Формат : AC-3
Формат/Информация : Audio Coding 3
Расширение режима : CM (complete main)
Идентификатор кодека : A_AC3
Продолжительность : 1 ч. 57 м.
Вид битрейта : Постоянный
Битрейт : 384 Кбит/сек
Каналы : 6 каналов
Расположение каналов : Front: L C R, Side: L R, LFE
Частота : 48,0 КГц
Битовая глубина : 16 бит
Метод сжатия : С потерями
Размер потока : 322 Мбайт (7%)
Заголовок : Дубляж
Язык : Russian
Свернуть
Оформление раздачи:
Совунья


Последний раз редактировалось Gloom 2011-04-25 17:56, всего редактировалось 1 раз.
Не в сети
Профиль  
 Добавлено: 2011-06-15 18:11 (спустя 1 месяц 20 дней)
Модератор
Аватара пользователя
Стаж: 8 лет 1 месяц
Возраст: 20
Сообщений: 32130
Спасибок: 98565
Лайков: 80
Кстати очень хороший фильм :)
Не в сети
Профиль  
 Добавлено: 2011-09-07 09:40 (спустя 2 месяца 21 день)
Аватара пользователя
Стаж: 7 лет 11 месяцев
Возраст: 26
Сообщений: 735
Спасибок: 694
Лайков: 3
Понять, что это Гай Ричи можно только по набору героев) Сам фильм сильно отличается от стиля Ричи, поэтому фильм можно назвать хорошим, но не отличным. В общем, 7 из 10)
Даже не могу сказать, что понравилось. Просто фильм оставил хорошее впечатление, понравились некоторые мысли из философии героев, но местами было откровенно перемудрено) Как говорится, вот что получается, когда ты женат на Мадонне)
_________________
Не можешь взять аргументами? До##ись до орфографии!
Изображение
 Костян236 нравится это.
Не в сети
Профиль  
 Добавлено: 2014-06-26 23:50 (спустя 2 года 9 месяцев)
Аватара пользователя
Стаж: 7 лет 8 месяцев
Сообщений: 28
Спасибок: 49
:-D
Не в сети
Профиль  
Начать новую темуОтветить на тему  [ Сообщений: 4 ] 
Вы не можете начинать темы
Вы не можете отвечать на сообщения
Вы не можете редактировать свои сообщения
Вы не можете удалять свои сообщения