Правила форума

  • В этом разделе создание новых тем Запрещено.
  • Для создания новых тем пользуйтесь Корневым разделом DVD и HD фильмы.
Начать новую темуОтветить на тему  [ 1 сообщение ] 
Торрент файл
Размер: 20.98 GB • Зарегистрирован: 4 года • Статус: Проверено
Скачан: 34 раза • Желающих скачать: 0 • Поблагодарили: 19 раз
 Раздают: 0  |  0 KB/s  ]   Качают: 0  |  0 KB/s  ] 
 Полного источника не было 4 месяца 23 дня 
Сообщения
 Добавлено: 2012-12-02 22:41
Руководитель релиз-группы
Аватара пользователя
Стаж: 7 лет 5 месяцев
Возраст: 31
Сообщений: 3406
Спасибок: 46729
Лайков: 5
Изображение

Рейд
Serbuan maut


Год выпуска: 2011
Страна: Индонезия, США
Слоган: «Спецназ против мафии. Брат против брата. 30 этажей ада»
Жанр: боевик, триллер, криминал
Продолжительность: 01:41:04
Перевод: Профессиональный (полное дублирование)
Режиссер: Гарет Эванс
Сценарий: Гарет Эванс
Продюсер: Арио Саганторо, Ранга Майя Барак-Эванс, Натаниель Болотин, Тодд Браун, Ирван Д. Мусри
Оператор: Мэтт Флэннери
Композитор: Майк Шинода, Ария Прайоги, Джозеф Трапанезе, Фаджар Юскемаль
В ролях: Ико Ювайс, Джо Таслим, Дони Аламсях, Яян Рухьян, Пьер Грюно, Рэй Сахетапи, Тегар Сатрия, Ианг Дармаван, Эка 'Пиранья' Рахмадия, Верди Солайман, Альфридиус Годфред, Рулли Сантосо
Бюджет: $1 100 000
Сборы в США: $4 105 187
Сборы в России: $249 853
Описание: Отряд спецназовцев получает задание проникнуть в многоэтажный дом, расположенный в самом сердце трущоб Джакарты, и арестовать обосновавшегося там наркобарона, которого охраняет целая армия вооруженных до зубов головорезов. Операцию нужно провести без лишнего шума, но нелепая случайность нарушает планы служителей закона. Теперь бойцам негде спрятаться и некуда бежать. Перед ними 30 этажей ада, где смертью грозит каждый неверный шаг. Война по правилам кончилась. Выживает сильнейший!
Изображение
MPAA: R
Мировая премьера: 8 сентября 2011
Релиз на DVD: 14 августа 2012, «Вольга»
Релиз на Blu-ray: 14 августа 2012, «Вольга»
Раздача группы: Изображение
Качество: BD-Remux, 1080p
Формат: Matroska
Видео: AVC; 1920x1080 (16:9); 23,976 fps
Аудио №1: DTS-HD; VBR; 6 ch; 16 bit Russian |дубляж|
Аудио №2: AC3; 640 Kbps; CBR; 6 ch Russian |дубляж|
Аудио №3: AC3; 640 Kbps; CBR; 6 ch Russian |авторский Ю.Сербин|
Аудио №4: DTS-HD; VBR; 6 ch; 24 bit Indonesian
Субтитры: русские
Примечание: к релизу SCHUMAHERа добавлена AC3 дорожка дублированного перевода и AC3 дорожка Ю. Сербина
mediainfo
Формат : Matroska
Версия формата : Version 2
Размер файла : 21,0 Гбайт
Продолжительность : 1 ч. 41 м.
Режим общего битрейта : Переменный
Общий поток : 29,7 Мбит/сек
Название фильма : --SCHUMAHER--
Дата кодирования : UTC 2012-12-02 18:44:36
Программа кодирования : mkvmerge v3.2.0 ('Beginnings') built on Feb 12 2010 16:46:17
Библиотека кодирования : libebml v0.7.9 + libmatroska v0.8.1

Видео
Идентификатор : 1
Формат : AVC
Формат/Информация : Advanced Video Codec
Профиль формата : High@L4.1
Параметр CABAC формата : Да
Параметр ReFrames формата : 4 кадра
Идентификатор кодека : V_MPEG4/ISO/AVC
Продолжительность : 1 ч. 41 м.
Вид битрейта : Переменный
Битрейт : 24,7 Мбит/сек
Максимальный битрейт : 30,0 Мбит/сек
Ширина : 1920 пикселей
Высота : 1080 пикселей
Соотношение сторон : 16:9
Частота кадров : 23,976 кадра/сек
Цветовое пространство : YUV
Субдискретизация насыщенности : 4:2:0
Битовая глубина : 8 бит
Тип развёртки : Прогрессивная
Бит/(Пиксели*Кадры) : 0.497
Размер потока : 17,5 Гбайт (83%)
Язык : Indonesian

Аудио #1
Идентификатор : 2
Формат : DTS
Формат/Информация : Digital Theater Systems
Профиль формата : MA / Core
Идентификатор кодека : A_DTS
Продолжительность : 1 ч. 41 м.
Вид битрейта : Переменный
Битрейт : 1561 Кбит/сек / 1510 Кбит/сек
Каналы : 6 каналов
Расположение каналов : Front: L C R, Side: L R, LFE
Частота : 48,0 КГц
Битовая глубина : 16 бит
Метод сжатия : Без потерь / Lossy
Заголовок : DTS 5.1 DUB
Язык : Russian

Аудио #2
Идентификатор : 3
Формат : AC-3
Формат/Информация : Audio Coding 3
Расширение режима : CM (complete main)
Идентификатор кодека : A_AC3
Продолжительность : 1 ч. 41 м.
Вид битрейта : Постоянный
Битрейт : 640 Кбит/сек
Каналы : 6 каналов
Расположение каналов : Front: L C R, Side: L R, LFE
Частота : 48,0 КГц
Битовая глубина : 16 бит
Метод сжатия : С потерями
Размер потока : 463 Мбайт (2%)
Заголовок : AC3 5.1 DUB
Язык : Russian

Аудио #3
Идентификатор : 4
Формат : AC-3
Формат/Информация : Audio Coding 3
Расширение режима : CM (complete main)
Идентификатор кодека : A_AC3
Продолжительность : 1 ч. 41 м.
Вид битрейта : Постоянный
Битрейт : 640 Кбит/сек
Каналы : 6 каналов
Расположение каналов : Front: L C R, Side: L R, LFE
Частота : 48,0 КГц
Битовая глубина : 16 бит
Метод сжатия : С потерями
Размер потока : 463 Мбайт (2%)
Заголовок : AC3 5.1 SERBIN

Аудио #4
Идентификатор : 5
Формат : DTS
Формат/Информация : Digital Theater Systems
Профиль формата : MA / Core
Идентификатор кодека : A_DTS
Продолжительность : 1 ч. 41 м.
Вид битрейта : Переменный
Битрейт : 1561 Кбит/сек / 1510 Кбит/сек
Каналы : 6 каналов
Расположение каналов : Front: L C R, Side: L R, LFE
Частота : 48,0 КГц
Битовая глубина : 24 бит
Метод сжатия : Без потерь / Lossy
Язык : Indonesian

Текст
Идентификатор : 6
Формат : UTF-8
Идентификатор кодека : S_TEXT/UTF8
Идентификатор кодека/Информация : UTF-8 Plain Text
Язык : Russian

Меню
00:00:00.000 : en:
00:06:15.124 : en:
00:12:36.380 : en:
00:17:37.765 : en:
00:22:45.696 : en:
00:27:06.916 : en:
00:32:45.880 : en:
00:37:27.495 : en:
00:42:37.888 : en:
00:48:49.927 : en:
00:55:16.104 : en:
00:59:58.720 : en:
01:05:15.828 : en:
01:10:53.332 : en:
01:16:29.167 : en:
01:30:09.779 : en:
Свернуть
"Знаете ли Вы, что..."
  • В оригинале фильм называется «Вторжение смерти».
  • Изначально, музыки Майка Шиноды в фильме не было. Новый саундтрек был заказан Шиноде, лишь когда Sony Pictures купила «Рейд» для проката на территории США.
Свернуть
Скриншоты

Изображение

Изображение

Изображение

Изображение
Свернуть
Не в сети
Профиль  
Начать новую темуОтветить на тему  [ 1 сообщение ] 
Вы не можете начинать темы
Вы не можете отвечать на сообщения
Вы не можете редактировать свои сообщения
Вы не можете удалять свои сообщения