Правила форума

  • В этом разделе создание новых тем Запрещено.
  • Для создания новых тем пользуйтесь Корневым разделом DVD и HD фильмы.
Начать новую темуОтветить на тему  [ Сообщений: 5 ] 
Торрент файл
Размер: 5.41 GB • Зарегистрирован: 4 года 3 месяца • Статус: Проверено
Скачан: 151 раз • Желающих скачать: 0 • Поблагодарили: 31 раз
 Раздают: 0  |  0 KB/s  ]   Качают: 0  |  0 KB/s  ] 
 Полного источника не было 1 месяц 4 дня 
Сообщения
 Добавлено: 2012-08-11 06:28
DVD Release Group
Аватара пользователя
Стаж: 7 лет 1 месяц
Сообщений: 3569
Спасибок: 247717
Лайков: 1020
Рейд

Serbuan maut

«Спецназ против мафии. Брат против брата. 30 этажей ада»


Изображение


Год выпуска: 2011
Страна: Индонезия, США / Pt. Merantau Films
Жанр: Боевик, триллер, криминал
Продолжительность: 01:40:44
Перевод: Профессиональный (полное дублирование)
Субтитры: Русские, английские
Режиссер: Гарет Эванс
В ролях: Ико Ювайс, Джо Таслим, Дони Аламсях, Яян Рухьян, Пьер Грюно, Рэй Сахетапи, Тегар Сатрия, Ианг Дармаван, Эка «Пиранья» Рахмадия, Верди Солайман
Описание: Отряд спецназовцев получает задание проникнуть в многоэтажный дом, расположенный в самом сердце трущоб Джакарты, и арестовать обосновавшегося там наркобарона, которого охраняет целая армия вооруженных до зубов головорезов. Операцию нужно провести без лишнего шума, но нелепая случайность нарушает планы служителей закона. Теперь бойцам негде спрятаться и некуда бежать. Перед ними 30 этажей ада, где смертью грозит каждый неверный шаг. Война по правилам кончилась. Выживает сильнейший!
Кинопоиск: 7.5 (4829)
IMDb: 7.9 (24629)
Качество: BDRip 720p
Формат: MKV
Видео кодек: H.264
Аудио кодек: DTS
Видео: 1280x692 24fps 4675kbps
Аудио:
Аудио Rus: 48kHz 6ch 1510kbps
Аудио Ind: 48kHz 6ch 1510kbps
"MediaInfo"
Формат : Matroska
Версия формата : Version 2
Размер файла : 5,41 Гбайт
Продолжительность : 1 ч. 40 м.
Общий поток : 7690 Кбит/сек
Название фильма : IRONCLUB
Дата кодирования : UTC 2012-08-10 19:18:32
Программа кодирования : mkvmerge v4.9.1 ('Ich will') built on Jul 11 2011 23:53:15
Библиотека кодирования : libebml v1.2.1 + libmatroska v1.1.1

Видео
Идентификатор : 1
Формат : AVC
Формат/Информация : Advanced Video Codec
Профиль формата : High@L4.1
Параметр CABAC формата : Да
Параметр ReFrames формата : 9 кадров
Идентификатор кодека : V_MPEG4/ISO/AVC
Продолжительность : 1 ч. 40 м.
Битрейт : 4675 Кбит/сек
Ширина : 1280 пикселей
Высота : 692 пикселя
Соотношение сторон : 1,850
Частота кадров : 24,000 кадра/сек
Цветовое пространство : YUV
Субдискретизация насыщенности : 4:2:0
Битовая глубина : 8 бит
Тип развёртки : Прогрессивная
Бит/(Пиксели*Кадры) : 0.220
Размер потока : 3,18 Гбайт (59%)
Заголовок : The.Raid.Redemption.2011.BluRay.720p.DTS.x264-CHD
Библиотека кодирования : x264 core 124 r2197 69a0443
Настройки программы : cabac=1 / ref=9 / deblock=1:-3:-3 / analyse=0x3:0x113 / me=umh / subme=10 / psy=1 / psy_rd=1.10:0.15 / mixed_ref=1 / me_range=32 / chroma_me=1 / trellis=2 / 8x8dct=1 / cqm=0 / deadzone=21,11 / fast_pskip=0 / chroma_qp_offset=-2 / threads=18 / sliced_threads=0 / nr=0 / decimate=1 / interlaced=0 / bluray_compat=0 / constrained_intra=0 / bframes=6 / b_pyramid=2 / b_adapt=2 / b_bias=0 / direct=3 / weightb=1 / open_gop=0 / weightp=2 / keyint=250 / keyint_min=24 / scenecut=40 / intra_refresh=0 / rc_lookahead=60 / rc=2pass / mbtree=0 / bitrate=4675 / ratetol=1.0 / qcomp=0.60 / qpmin=0 / qpmax=69 / qpstep=4 / cplxblur=20.0 / qblur=0.5 / vbv_maxrate=40000 / vbv_bufsize=30000 / nal_hrd=none / ip_ratio=1.40 / pb_ratio=1.30 / aq=1:0.80
Язык : English

Аудио #1
Идентификатор : 2
Формат : DTS
Формат/Информация : Digital Theater Systems
Идентификатор кодека : A_DTS
Продолжительность : 1 ч. 40 м.
Вид битрейта : Постоянный
Битрейт : 1510 Кбит/сек
Каналы : 6 каналов
Расположение каналов : Front: L C R, Side: L R, LFE
Частота : 48,0 КГц
Битовая глубина : 16 бит
Метод сжатия : С потерями
Размер потока : 1,06 Гбайт (20%)
Заголовок : DTS 5.1 @ 1536 kbps - Dub, BD RUS
Язык : Russian

Аудио #2
Идентификатор : 3
Формат : DTS
Формат/Информация : Digital Theater Systems
Идентификатор кодека : A_DTS
Продолжительность : 1 ч. 40 м.
Вид битрейта : Постоянный
Битрейт : 1510 Кбит/сек
Каналы : 6 каналов
Расположение каналов : Front: L C R, Side: L R, LFE
Частота : 48,0 КГц
Битовая глубина : 16 бит
Метод сжатия : С потерями
Размер потока : 1,06 Гбайт (20%)
Заголовок : DTS 5.1 @ 1536 kbps
Язык : English

Текст #1
Идентификатор : 4
Формат : UTF-8
Идентификатор кодека : S_TEXT/UTF8
Идентификатор кодека/Информация : UTF-8 Plain Text
Заголовок : 107miller
Язык : Russian

Текст #2
Идентификатор : 5
Формат : UTF-8
Идентификатор кодека : S_TEXT/UTF8
Идентификатор кодека/Информация : UTF-8 Plain Text
Заголовок : AzurS & Co.
Язык : Russian

Текст #3
Идентификатор : 6
Формат : UTF-8
Идентификатор кодека : S_TEXT/UTF8
Идентификатор кодека/Информация : UTF-8 Plain Text
Язык : English
Свернуть

"Скриншоты"
Изображение
Изображение
Изображение
Свернуть

Раздача группы:
Изображение
Не в сети
Профиль  
 Добавлено: 2012-08-11 13:39 (спустя 7 часов)
Стаж: 4 года 6 месяцев
Сообщений: 7
классный фильм, давно не видел таких !!!
Не в сети
Профиль  
 Добавлено: 2012-08-12 01:41 (спустя 12 часов)
Аватара пользователя
Стаж: 9 лет 3 месяца
Возраст: 42
Сообщений: 589
Спасибок: 11589
Лайков: 4
В фильме классно поставлены бои. Некоторые кадры просто "жгут". В остальном, извините, голимый трэшак и просто бред!
Не в сети
Профиль  
 Добавлено: 2013-01-14 15:33 (спустя 5 месяцев 2 дня)
Стаж: 5 лет 3 месяца
Сообщений: 1
Классное кино,Спасибо !
Не в сети
Профиль  
 Добавлено: 2013-01-14 22:29 (спустя 6 часов)
Стаж: 5 лет 3 месяца
Сообщений: 150
Лайков: 2
Пф...Фильм параша!
Не в сети
Профиль  
Начать новую темуОтветить на тему  [ Сообщений: 5 ] 
Вы не можете начинать темы
Вы не можете отвечать на сообщения
Вы не можете редактировать свои сообщения
Вы не можете удалять свои сообщения